  0
SECTION
  2
HEADER
  9
$ACADVER
  1
AC1015
  9
$ACADMAINTVER
 70
    20
  9
$DWGCODEPAGE
  3
ANSI_1252
  9
$INSBASE
 10
0.0
 20
0.0
 30
0.0
  9
$EXTMIN
 10
-0.075
 20
-0.075
 30
0.0
  9
$EXTMAX
 10
11.075
 20
8.575000000000001
 30
0.0
  9
$LIMMIN
 10
0.0
 20
0.0
  9
$LIMMAX
 10
12.0
 20
9.0
  9
$ORTHOMODE
 70
     0
  9
$REGENMODE
 70
     1
  9
$FILLMODE
 70
     1
  9
$QTEXTMODE
 70
     0
  9
$MIRRTEXT
 70
     0
  9
$LTSCALE
 40
1.0
  9
$ATTMODE
 70
     1
  9
$TEXTSIZE
 40
0.09
  9
$TRACEWID
 40
0.05
  9
$TEXTSTYLE
  7
Standard
  9
$CLAYER
  8
0
  9
$CELTYPE
  6
ByLayer
  9
$CECOLOR
 62
   256
  9
$CELTSCALE
 40
1.0
  9
$DISPSILH
 70
     0
  9
$DIMSCALE
 40
1.0
  9
$DIMASZ
 40
0.1875
  9
$DIMEXO
 40
0.0625
  9
$DIMDLI
 40
0.38
  9
$DIMRND
 40
0.0
  9
$DIMDLE
 40
0.0
  9
$DIMEXE
 40
0.125
  9
$DIMTP
 40
0.0
  9
$DIMTM
 40
0.0
  9
$DIMTXT
 40
0.09
  9
$DIMCEN
 40
0.09
  9
$DIMTSZ
 40
0.0
  9
$DIMTOL
 70
     0
  9
$DIMLIM
 70
     0
  9
$DIMTIH
 70
     1
  9
$DIMTOH
 70
     1
  9
$DIMSE1
 70
     0
  9
$DIMSE2
 70
     0
  9
$DIMTAD
 70
     0
  9
$DIMZIN
 70
     0
  9
$DIMBLK
  1

  9
$DIMASO
 70
     1
  9
$DIMSHO
 70
     1
  9
$DIMPOST
  1

  9
$DIMAPOST
  1
mm
  9
$DIMALT
 70
     1
  9
$DIMALTD
 70
     1
  9
$DIMALTF
 40
25.4
  9
$DIMLFAC
 40
1.0
  9
$DIMTOFL
 70
     0
  9
$DIMTVP
 40
0.0
  9
$DIMTIX
 70
     0
  9
$DIMSOXD
 70
     0
  9
$DIMSAH
 70
     0
  9
$DIMBLK1
  1

  9
$DIMBLK2
  1

  9
$DIMSTYLE
  2
Standard
  9
$DIMCLRD
 70
     0
  9
$DIMCLRE
 70
     0
  9
$DIMCLRT
 70
     0
  9
$DIMTFAC
 40
1.0
  9
$DIMGAP
 40
0.09
  9
$DIMJUST
 70
     0
  9
$DIMSD1
 70
     0
  9
$DIMSD2
 70
     0
  9
$DIMTOLJ
 70
     1
  9
$DIMTZIN
 70
     0
  9
$DIMALTZ
 70
     0
  9
$DIMALTTZ
 70
     0
  9
$DIMUPT
 70
     0
  9
$DIMDEC
 70
     2
  9
$DIMTDEC
 70
     2
  9
$DIMALTU
 70
     2
  9
$DIMALTTD
 70
     1
  9
$DIMTXSTY
  7
Standard
  9
$DIMAUNIT
 70
     0
  9
$DIMADEC
 70
     0
  9
$DIMALTRND
 40
0.0
  9
$DIMAZIN
 70
     0
  9
$DIMDSEP
 70
    46
  9
$DIMATFIT
 70
     3
  9
$DIMFRAC
 70
     0
  9
$DIMLDRBLK
  1

  9
$DIMLUNIT
 70
     2
  9
$DIMLWD
 70
    -2
  9
$DIMLWE
 70
    -2
  9
$DIMTMOVE
 70
     0
  9
$LUNITS
 70
     2
  9
$LUPREC
 70
     4
  9
$SKETCHINC
 40
0.1
  9
$FILLETRAD
 40
0.0
  9
$AUNITS
 70
     0
  9
$AUPREC
 70
     0
  9
$MENU
  1
.
  9
$ELEVATION
 40
0.0
  9
$PELEVATION
 40
0.0
  9
$THICKNESS
 40
0.0
  9
$LIMCHECK
 70
     0
  9
$CHAMFERA
 40
0.0
  9
$CHAMFERB
 40
0.0
  9
$CHAMFERC
 40
0.0
  9
$CHAMFERD
 40
0.0
  9
$SKPOLY
 70
     0
  9
$TDCREATE
 40
2453769.687240255
  9
$TDUCREATE
 40
2453769.895573588
  9
$TDUPDATE
 40
2454294.590846215
  9
$TDUUPDATE
 40
2454294.799179549
  9
$TDINDWG
 40
0.0292319560
  9
$TDUSRTIMER
 40
0.0292319560
  9
$USRTIMER
 70
     1
  9
$ANGBASE
 50
0.0
  9
$ANGDIR
 70
     0
  9
$PDMODE
 70
     2
  9
$PDSIZE
 40
0.075
  9
$PLINEWID
 40
0.0
  9
$SPLFRAME
 70
     0
  9
$SPLINETYPE
 70
     6
  9
$SPLINESEGS
 70
     8
  9
$HANDSEED
  5
911
  9
$SURFTAB1
 70
     6
  9
$SURFTAB2
 70
     6
  9
$SURFTYPE
 70
     6
  9
$SURFU
 70
     6
  9
$SURFV
 70
     6
  9
$UCSBASE
  2

  9
$UCSNAME
  2

  9
$UCSORG
 10
0.0
 20
0.0
 30
0.0
  9
$UCSXDIR
 10
1.0
 20
0.0
 30
0.0
  9
$UCSYDIR
 10
0.0
 20
1.0
 30
0.0
  9
$UCSORTHOREF
  2

  9
$UCSORTHOVIEW
 70
     0
  9
$UCSORGTOP
 10
0.0
 20
0.0
 30
0.0
  9
$UCSORGBOTTOM
 10
0.0
 20
0.0
 30
0.0
  9
$UCSORGLEFT
 10
0.0
 20
0.0
 30
0.0
  9
$UCSORGRIGHT
 10
0.0
 20
0.0
 30
0.0
  9
$UCSORGFRONT
 10
0.0
 20
0.0
 30
0.0
  9
$UCSORGBACK
 10
0.0
 20
0.0
 30
0.0
  9
$PUCSBASE
  2

  9
$PUCSNAME
  2

  9
$PUCSORG
 10
0.0
 20
0.0
 30
0.0
  9
$PUCSXDIR
 10
1.0
 20
0.0
 30
0.0
  9
$PUCSYDIR
 10
0.0
 20
1.0
 30
0.0
  9
$PUCSORTHOREF
  2

  9
$PUCSORTHOVIEW
 70
     0
  9
$PUCSORGTOP
 10
0.0
 20
0.0
 30
0.0
  9
$PUCSORGBOTTOM
 10
0.0
 20
0.0
 30
0.0
  9
$PUCSORGLEFT
 10
0.0
 20
0.0
 30
0.0
  9
$PUCSORGRIGHT
 10
0.0
 20
0.0
 30
0.0
  9
$PUCSORGFRONT
 10
0.0
 20
0.0
 30
0.0
  9
$PUCSORGBACK
 10
0.0
 20
0.0
 30
0.0
  9
$USERI1
 70
     0
  9
$USERI2
 70
     0
  9
$USERI3
 70
     0
  9
$USERI4
 70
     0
  9
$USERI5
 70
     0
  9
$USERR1
 40
0.0
  9
$USERR2
 40
0.0
  9
$USERR3
 40
0.0
  9
$USERR4
 40
0.0
  9
$USERR5
 40
0.0
  9
$WORLDVIEW
 70
     1
  9
$SHADEDGE
 70
     3
  9
$SHADEDIF
 70
    70
  9
$TILEMODE
 70
     1
  9
$MAXACTVP
 70
    64
  9
$PINSBASE
 10
0.0
 20
0.0
 30
0.0
  9
$PLIMCHECK
 70
     0
  9
$PEXTMIN
 10
0.0
 20
0.0
 30
0.0
  9
$PEXTMAX
 10
0.0
 20
0.0
 30
0.0
  9
$PLIMMIN
 10
0.0
 20
0.0
  9
$PLIMMAX
 10
12.0
 20
9.0
  9
$UNITMODE
 70
     0
  9
$VISRETAIN
 70
     1
  9
$PLINEGEN
 70
     0
  9
$PSLTSCALE
 70
     1
  9
$TREEDEPTH
 70
  3020
  9
$CMLSTYLE
  2
Standard
  9
$CMLJUST
 70
     0
  9
$CMLSCALE
 40
1.0
  9
$PROXYGRAPHICS
 70
     1
  9
$MEASUREMENT
 70
     0
  9
$CELWEIGHT
370
    -1
  9
$ENDCAPS
280
     0
  9
$JOINSTYLE
280
     0
  9
$LWDISPLAY
290
     0
  9
$INSUNITS
 70
     1
  9
$HYPERLINKBASE
  1

  9
$STYLESHEET
  1

  9
$XEDIT
290
     1
  9
$CEPSNTYPE
380
     0
  9
$PSTYLEMODE
290
     1
  9
$FINGERPRINTGUID
  2
{61931896-7096-4BF2-9E43-77BAFEF554D3}
  9
$VERSIONGUID
  2
{847A27FC-E72E-4CA6-A9B3-18AD9867ACEE}
  9
$EXTNAMES
290
     1
  9
$PSVPSCALE
 40
0.0
  9
$OLESTARTUP
290
     0
  0
ENDSEC
  0
SECTION
  2
CLASSES
  0
CLASS
  1
ACDBDICTIONARYWDFLT
  2
AcDbDictionaryWithDefault
  3
ObjectDBX Classes
 90
        0
280
     0
281
     0
  0
CLASS
  1
ACDBPLACEHOLDER
  2
AcDbPlaceHolder
  3
ObjectDBX Classes
 90
        0
280
     0
281
     0
  0
CLASS
  1
LAYOUT
  2
AcDbLayout
  3
ObjectDBX Classes
 90
        0
280
     0
281
     0
  0
CLASS
  1
DICTIONARYVAR
  2
AcDbDictionaryVar
  3
ObjectDBX Classes
 90
        0
280
     0
281
     0
  0
CLASS
  1
TABLESTYLE
  2
AcDbTableStyle
  3
ObjectDBX Classes
 90
     2047
280
     0
281
     0
  0
CLASS
  1
DIMASSOC
  2
AcDbDimAssoc
  3
"AcDbDimAssoc|Product Desc:     AcDim ARX App For Dimension|Company:          Autodesk, Inc.|WEB Address:      www.autodesk.com"
 90
        0
280
     0
281
     0
  0
CLASS
  1
SORTENTSTABLE
  2
AcDbSortentsTable
  3
ObjectDBX Classes
 90
        0
280
     0
281
     0
  0
ENDSEC
  0
SECTION
  2
TABLES
  0
TABLE
  2
VPORT
  5
8
330
0
100
AcDbSymbolTable
 70
     2
  0
VPORT
  5
909
330
8
100
AcDbSymbolTableRecord
100
AcDbViewportTableRecord
  2
*Active
 70
     0
 10
0.0
 20
0.0
 11
1.0
 21
1.0
 12
5.499943496390738
 22
4.554574012307608
 13
0.0
 23
0.0
 14
0.5
 24
0.5
 15
0.5
 25
0.5
 16
0.0
 26
0.0
 36
1.0
 17
0.0
 27
0.0
 37
0.0
 40
9.314889980451676
 41
1.499364675984752
 42
50.0
 43
0.0
 44
0.0
 50
0.0
 51
0.0
 71
     0
 72
  1000
 73
     1
 74
     3
 75
     0
 76
     0
 77
     0
 78
     0
281
     0
 65
     1
110
0.0
120
0.0
130
0.0
111
1.0
121
0.0
131
0.0
112
0.0
122
1.0
132
0.0
 79
     0
146
0.0
  0
ENDTAB
  0
TABLE
  2
LTYPE
  5
5
330
0
100
AcDbSymbolTable
 70
     1
  0
LTYPE
  5
14
330
5
100
AcDbSymbolTableRecord
100
AcDbLinetypeTableRecord
  2
ByBlock
 70
     0
  3

 72
    65
 73
     0
 40
0.0
  0
LTYPE
  5
15
330
5
100
AcDbSymbolTableRecord
100
AcDbLinetypeTableRecord
  2
ByLayer
 70
     0
  3

 72
    65
 73
     0
 40
0.0
  0
LTYPE
  5
16
330
5
100
AcDbSymbolTableRecord
100
AcDbLinetypeTableRecord
  2
Continuous
 70
     0
  3
Solid line
 72
    65
 73
     0
 40
0.0
  0
ENDTAB
  0
TABLE
  2
LAYER
  5
2
330
0
100
AcDbSymbolTable
 70
     6
  0
LAYER
  5
10
330
2
100
AcDbSymbolTableRecord
100
AcDbLayerTableRecord
  2
0
 70
     0
 62
     7
  6
Continuous
370
    -3
390
F
  0
LAYER
  5
8B
330
2
100
AcDbSymbolTableRecord
100
AcDbLayerTableRecord
  2
Title Block
 70
     0
 62
     3
  6
Continuous
370
    -3
390
F
  0
LAYER
  5
8C
330
2
100
AcDbSymbolTableRecord
100
AcDbLayerTableRecord
  2
Dimension
 70
     0
 62
     6
  6
Continuous
370
    -3
390
F
  0
LAYER
  5
8D
330
2
100
AcDbSymbolTableRecord
100
AcDbLayerTableRecord
  2
Text
 70
     0
 62
     1
  6
Continuous
370
    -3
390
F
  0
LAYER
  5
8E
330
2
100
AcDbSymbolTableRecord
100
AcDbLayerTableRecord
  2
Object
 70
     0
 62
     5
  6
Continuous
370
    -3
390
F
  0
LAYER
  5
51A
330
2
100
AcDbSymbolTableRecord
100
AcDbLayerTableRecord
  2
Defpoints
 70
     0
 62
     7
  6
Continuous
290
     0
370
    -3
390
F
  0
ENDTAB
  0
TABLE
  2
STYLE
  5
3
330
0
100
AcDbSymbolTable
 70
     1
  0
STYLE
  5
11
330
3
100
AcDbSymbolTableRecord
100
AcDbTextStyleTableRecord
  2
Standard
 70
     0
 40
0.0
 41
1.0
 50
0.0
 71
     0
 42
0.09
  3
technic_.ttf
  4

1001
ACAD
1000
Technic
1071
      514
  0
ENDTAB
  0
TABLE
  2
VIEW
  5
6
330
0
100
AcDbSymbolTable
 70
     0
  0
ENDTAB
  0
TABLE
  2
UCS
  5
7
330
0
100
AcDbSymbolTable
 70
     0
  0
ENDTAB
  0
TABLE
  2
APPID
  5
9
330
0
100
AcDbSymbolTable
 70
     4
  0
APPID
  5
12
330
9
100
AcDbSymbolTableRecord
100
AcDbRegAppTableRecord
  2
ACAD
 70
     0
  0
APPID
  5
90
330
9
100
AcDbSymbolTableRecord
100
AcDbRegAppTableRecord
  2
DCO15
 70
     0
  0
APPID
  5
91
330
9
100
AcDbSymbolTableRecord
100
AcDbRegAppTableRecord
  2
AcAecLayerStandard
 70
     0
  0
APPID
  5
DD
330
9
100
AcDbSymbolTableRecord
100
AcDbRegAppTableRecord
  2
ACAD_DSTYLE_DIMTEXT_FILL
 70
     0
  0
ENDTAB
  0
TABLE
  2
DIMSTYLE
  5
A
330
0
100
AcDbSymbolTable
 70
     1
100
AcDbDimStyleTable
 71
     1
340
27
  0
DIMSTYLE
105
27
102
{ACAD_REACTORS
330
830
330
84A
330
8AC
102
}
330
A
100
AcDbSymbolTableRecord
100
AcDbDimStyleTableRecord
  2
Standard
 70
     0
  4
mm
 41
0.1875
 44
0.125
140
0.09
170
     1
171
     1
271
     2
272
     2
274
     1
340
11
  0
ENDTAB
  0
TABLE
  2
BLOCK_RECORD
  5
1
330
0
100
AcDbSymbolTable
 70
     4
  0
BLOCK_RECORD
  5
1F
102
{ACAD_XDICTIONARY
360
5D0
102
}
330
1
100
AcDbSymbolTableRecord
100
AcDbBlockTableRecord
  2
*Model_Space
340
22
  0
BLOCK_RECORD
  5
58
330
1
100
AcDbSymbolTableRecord
100
AcDbBlockTableRecord
  2
*Paper_Space
340
59
  0
BLOCK_RECORD
  5
5D
330
1
100
AcDbSymbolTableRecord
100
AcDbBlockTableRecord
  2
*Paper_Space0
340
5E
  0
BLOCK_RECORD
  5
831
330
1
100
AcDbSymbolTableRecord
100
AcDbBlockTableRecord
  2
*D1
340
0
  0
BLOCK_RECORD
  5
84B
330
1
100
AcDbSymbolTableRecord
100
AcDbBlockTableRecord
  2
*D2
340
0
  0
BLOCK_RECORD
  5
8AD
330
1
100
AcDbSymbolTableRecord
100
AcDbBlockTableRecord
  2
*D3
340
0
  0
ENDTAB
  0
ENDSEC
  0
SECTION
  2
BLOCKS
  0
BLOCK
  5
20
330
1F
100
AcDbEntity
  8
0
100
AcDbBlockBegin
  2
*Model_Space
 70
     0
 10
0.0
 20
0.0
 30
0.0
  3
*Model_Space
  1

  0
ENDBLK
  5
21
330
1F
100
AcDbEntity
  8
0
100
AcDbBlockEnd
  0
BLOCK
  5
5A
330
58
100
AcDbEntity
 67
     1
  8
0
100
AcDbBlockBegin
  2
*Paper_Space
 70
     0
 10
0.0
 20
0.0
 30
0.0
  3
*Paper_Space
  1

  0
ENDBLK
  5
5B
330
58
100
AcDbEntity
 67
     1
  8
0
100
AcDbBlockEnd
  0
BLOCK
  5
5F
330
5D
100
AcDbEntity
  8
0
100
AcDbBlockBegin
  2
*Paper_Space0
 70
     0
 10
0.0
 20
0.0
 30
0.0
  3
*Paper_Space0
  1

  0
ENDBLK
  5
60
330
5D
100
AcDbEntity
  8
0
100
AcDbBlockEnd
  0
BLOCK
  5
83C
330
831
100
AcDbEntity
  8
0
100
AcDbBlockBegin
  2
*D1
 70
     1
 10
0.0
 20
0.0
 30
0.0
  3
*D1
  1

  0
LINE
  5
88A
330
831
100
AcDbEntity
  8
Dimension
 62
     0
370
    -2
100
AcDbLine
 10
2.105737129496699
 20
7.087660616226674
 30
0.0
 11
2.105737129496699
 21
8.109562841748971
 31
0.0
  0
LINE
  5
88B
330
831
100
AcDbEntity
  8
Dimension
 62
     0
370
    -2
100
AcDbLine
 10
8.689737129496698
 20
7.087660616226674
 30
0.0
 11
8.689737129496698
 21
8.109562841748971
 31
0.0
  0
LINE
  5
88C
330
831
100
AcDbEntity
  8
Dimension
 62
     0
370
    -2
100
AcDbLine
 10
2.293237129496699
 20
7.984562841748971
 30
0.0
 11
4.857145024233541
 21
7.984562841748971
 31
0.0
  0
LINE
  5
88D
330
831
100
AcDbEntity
  8
Dimension
 62
     0
370
    -2
100
AcDbLine
 10
8.502237129496698
 20
7.984562841748971
 30
0.0
 11
5.938329234759856
 21
7.984562841748971
 31
0.0
  0
SOLID
  5
88E
330
831
100
AcDbEntity
  8
Dimension
 62
     0
100
AcDbTrace
 10
2.293237129496699
 20
8.015812841748971
 30
0.0
 11
2.293237129496699
 21
7.953312841748971
 31
0.0
 12
2.105737129496699
 22
7.984562841748971
 32
0.0
 13
2.105737129496699
 23
7.984562841748971
 33
0.0
  0
SOLID
  5
88F
330
831
100
AcDbEntity
  8
Dimension
 62
     0
100
AcDbTrace
 10
8.502237129496698
 20
8.015812841748971
 30
0.0
 11
8.502237129496698
 21
7.953312841748971
 31
0.0
 12
8.689737129496698
 22
7.984562841748971
 32
0.0
 13
8.689737129496698
 23
7.984562841748971
 33
0.0
  0
MTEXT
  5
890
330
831
100
AcDbEntity
  8
Dimension
 62
     0
100
AcDbMText
 10
5.397737129496698
 20
7.984562841748971
 30
0.0
 40
0.09
 41
0.0
 71
     5
 72
     1
  1
\A1;6.58 [167.3MM]
 73
     1
 44
1.0
1001
ACAD
1000
MTEXTBEGIN
1070
    73
1070
     1
1070
    44
1040
1.0
1070
    74
1070
     0
1000
MTEXTEND
  0
POINT
  5
891
330
831
100
AcDbEntity
  8
Defpoints
 62
     0
100
AcDbPoint
 10
2.105737129496699
 20
7.025160616226674
 30
0.0
  0
POINT
  5
892
330
831
100
AcDbEntity
  8
Defpoints
 62
     0
100
AcDbPoint
 10
8.689737129496698
 20
7.025160616226674
 30
0.0
  0
POINT
  5
893
330
831
100
AcDbEntity
  8
Defpoints
 62
     0
100
AcDbPoint
 10
8.689737129496698
 20
7.984562841748971
 30
0.0
  0
ENDBLK
  5
83D
330
831
100
AcDbEntity
  8
0
100
AcDbBlockEnd
  0
BLOCK
  5
856
330
84B
100
AcDbEntity
  8
0
100
AcDbBlockBegin
  2
*D2
 70
     1
 10
0.0
 20
0.0
 30
0.0
  3
*D2
  1

  0
LINE
  5
894
330
84B
100
AcDbEntity
  8
Dimension
 62
     0
370
    -2
100
AcDbLine
 10
7.862237129496699
 20
3.152160616226674
 30
0.0
 11
9.802681162022979
 21
3.152160616226673
 31
0.0
  0
LINE
  5
895
330
84B
100
AcDbEntity
  8
Dimension
 62
     0
370
    -2
100
AcDbLine
 10
8.530237129496699
 20
7.594160616226674
 30
0.0
 11
9.802681162022981
 21
7.594160616226674
 31
0.0
  0
LINE
  5
896
330
84B
100
AcDbEntity
  8
Dimension
 62
     0
370
    -2
100
AcDbLine
 10
9.677681162022979
 20
3.339660616226673
 30
0.0
 11
9.677681162022981
 21
5.220134300437201
 31
0.0
  0
LINE
  5
897
330
84B
100
AcDbEntity
  8
Dimension
 62
     0
370
    -2
100
AcDbLine
 10
9.677681162022981
 20
7.406660616226674
 30
0.0
 11
9.677681162022981
 21
5.526186932016147
 31
0.0
  0
SOLID
  5
898
330
84B
100
AcDbEntity
  8
Dimension
 62
     0
100
AcDbTrace
 10
9.646431162022979
 20
3.339660616226673
 30
0.0
 11
9.708931162022979
 21
3.339660616226673
 31
0.0
 12
9.677681162022979
 22
3.152160616226673
 32
0.0
 13
9.677681162022979
 23
3.152160616226673
 33
0.0
  0
SOLID
  5
899
330
84B
100
AcDbEntity
  8
Dimension
 62
     0
100
AcDbTrace
 10
9.646431162022981
 20
7.406660616226674
 30
0.0
 11
9.708931162022981
 21
7.406660616226674
 31
0.0
 12
9.677681162022981
 22
7.594160616226674
 32
0.0
 13
9.677681162022981
 23
7.594160616226674
 33
0.0
  0
MTEXT
  5
89A
330
84B
100
AcDbEntity
  8
Dimension
 62
     0
100
AcDbMText
 10
9.677681162022979
 20
5.373160616226675
 30
0.0
 40
0.09
 41
0.0
 71
     5
 72
     1
  1
\A1;4.44 [112.8mm]
 73
     1
 44
1.0
1001
ACAD
1000
MTEXTBEGIN
1070
    73
1070
     1
1070
    44
1040
1.0
1070
    74
1070
     0
1000
MTEXTEND
  0
POINT
  5
89B
330
84B
100
AcDbEntity
  8
Defpoints
 62
     0
100
AcDbPoint
 10
7.799737129496699
 20
3.152160616226674
 30
0.0
  0
POINT
  5
89C
330
84B
100
AcDbEntity
  8
Defpoints
 62
     0
100
AcDbPoint
 10
8.467737129496699
 20
7.594160616226674
 30
0.0
  0
POINT
  5
89D
330
84B
100
AcDbEntity
  8
Defpoints
 62
     0
100
AcDbPoint
 10
9.677681162022981
 20
7.594160616226674
 30
0.0
  0
ENDBLK
  5
857
330
84B
100
AcDbEntity
  8
0
100
AcDbBlockEnd
  0
BLOCK
  5
8B8
330
8AD
100
AcDbEntity
  8
0
100
AcDbBlockBegin
  2
*D3
 70
     1
 10
0.0
 20
0.0
 30
0.0
  3
*D3
  1

  0
LINE
  5
8F1
330
8AD
100
AcDbEntity
  8
Dimension
 62
     0
370
    -2
100
AcDbLine
 10
2.540280202117141
 20
5.284493802089166
 30
0.0
 11
2.727780202117141
 21
5.284493802089166
 31
0.0
  0
LINE
  5
8F2
330
8AD
100
AcDbEntity
  8
Dimension
 62
     0
370
    -2
100
AcDbLine
 10
2.039774323614886
 20
5.284493802089166
 30
0.0
 11
1.852274323614886
 21
5.284493802089166
 31
0.0
  0
SOLID
  5
8F3
330
8AD
100
AcDbEntity
  8
Dimension
 62
     0
100
AcDbTrace
 10
2.540280202117141
 20
5.315743802089166
 30
0.0
 11
2.540280202117141
 21
5.253243802089166
 31
0.0
 12
2.352780202117141
 22
5.284493802089166
 32
0.0
 13
2.352780202117141
 23
5.284493802089166
 33
0.0
  0
SOLID
  5
8F4
330
8AD
100
AcDbEntity
  8
Dimension
 62
     0
100
AcDbTrace
 10
2.039774323614886
 20
5.315743802089166
 30
0.0
 11
2.039774323614886
 21
5.253243802089166
 31
0.0
 12
2.227274323614886
 22
5.284493802089166
 32
0.0
 13
2.227274323614886
 23
5.284493802089166
 33
0.0
  0
MTEXT
  5
8F5
330
8AD
100
AcDbEntity
  8
Dimension
 62
     0
100
AcDbMText
 10
1.391682218351728
 20
5.284493802089166
 30
0.0
 40
0.09
 41
0.0
 71
     5
 72
     1
  1
\A1;0.12 [3.2MM]
 73
     1
 44
1.0
1001
ACAD
1000
MTEXTBEGIN
1070
    73
1070
     1
1070
    44
1040
1.0
1070
    74
1070
     0
1000
MTEXTEND
  0
POINT
  5
8F6
330
8AD
100
AcDbEntity
  8
Defpoints
 62
     0
100
AcDbPoint
 10
2.352780202117141
 20
5.279133320444268
 30
0.0
  0
POINT
  5
8F7
330
8AD
100
AcDbEntity
  8
Defpoints
 62
     0
100
AcDbPoint
 10
2.227274323614886
 20
5.279133320444268
 30
0.0
  0
POINT
  5
8F8
330
8AD
100
AcDbEntity
  8
Defpoints
 62
     0
100
AcDbPoint
 10
2.227274323614886
 20
5.284493802089166
 30
0.0
  0
ENDBLK
  5
8B9
330
8AD
100
AcDbEntity
  8
0
100
AcDbBlockEnd
  0
ENDSEC
  0
SECTION
  2
ENTITIES
  0
TEXT
  5
54E
330
1F
100
AcDbEntity
  8
Text
100
AcDbText
 10
4.838837566803459
 20
2.959257039368598
 30
0.0
 40
0.125
  1
FRONT VIEW
100
AcDbText
  0
TEXT
  5
58B
330
1F
100
AcDbEntity
  8
Title Block
100
AcDbText
 10
6.776695012655547
 20
2.672489851525508
 30
0.0
 40
0.05
  1
FILENAME:
100
AcDbText
  0
TEXT
  5
58C
330
1F
100
AcDbEntity
  8
Title Block
100
AcDbText
 10
6.769285028728251
 20
2.076224967549325
 30
0.0
 40
0.35
  1
PANDUIT
100
AcDbText
  0
TEXT
  5
58D
330
1F
100
AcDbEntity
  8
Title Block
100
AcDbText
 10
8.721820398821382
 20
2.061410940562986
 30
0.0
 40
0.125
  1
CORP. TINLEY PARK, IL
100
AcDbText
  0
TEXT
  5
58E
330
1F
100
AcDbEntity
  8
Title Block
100
AcDbText
 10
6.780399976708615
 20
1.91697409709392
 30
0.0
 40
0.05
  1
TITLE:
100
AcDbText
  0
MTEXT
  5
58F
330
1F
100
AcDbEntity
  8
Title Block
100
AcDbMText
 10
8.0
 20
1.372215793536348
 30
0.0
 40
0.075
 41
2.5
 71
     5
 72
     5
  1
UNLESS OTHERWISE SPECIFIED,\PDIMENSIONAL TOLERANCES ARE:       
 73
     1
 44
1.0
1001
ACAD
1000
MTEXTBEGIN
1070
    73
1070
     1
1070
    44
1040
1.0
1070
    74
1070
     0
1000
MTEXTEND
  0
MTEXT
  5
590
330
1F
100
AcDbEntity
  8
Title Block
100
AcDbMText
 10
7.392379866610014
 20
1.131487708483632
 30
0.0
 40
0.075
 41
2.5
 71
     5
 72
     5
  1
(.X)\P(.XX)
 73
     1
 44
1.0
1001
ACAD
1000
MTEXTBEGIN
1070
    73
1070
     1
1070
    44
1040
1.0
1070
    74
1070
     0
1000
MTEXTEND
  0
MTEXT
  5
591
330
1F
100
AcDbEntity
  8
Title Block
100
AcDbMText
 10
8.400140053124118
 20
1.131487708483632
 30
0.0
 40
0.075
 41
2.5
 71
     5
 72
     5
  1
(.XXX)\PANGLES:
 73
     1
 44
1.0
1001
ACAD
1000
MTEXTBEGIN
1070
    73
1070
     1
1070
    44
1040
1.0
1070
    74
1070
     0
1000
MTEXTEND
  0
MTEXT
  5
592
330
1F
100
AcDbEntity
  8
Title Block
100
AcDbMText
 10
10.0
 20
1.25
 30
0.0
 40
0.06
 41
1.5
 71
     5
 72
     5
  1
UNLESS OTHERWISE SPECIFIED,\PALL DIMENSIONS ARE GIVEN IN INCHES, THIRD ANGLE PROJECTION
 73
     1
 44
1.0
1001
ACAD
1000
MTEXTBEGIN
1070
    73
1070
     1
1070
    44
1040
1.0
1070
    74
1070
     0
1000
MTEXTEND
  0
TEXT
  5
593
330
1F
100
AcDbEntity
  8
Title Block
100
AcDbText
 10
6.760764454306187
 20
0.9281373372752312
 30
0.0
 40
0.05
  1
DRAWN BY:
100
AcDbText
  0
TEXT
  5
594
330
1F
100
AcDbEntity
  8
Title Block
100
AcDbText
 10
6.764469474180437
 20
0.6811431865635028
 30
0.0
 40
0.05
  1
DATE:
100
AcDbText
  0
TEXT
  5
595
330
1F
100
AcDbEntity
  8
Title Block
100
AcDbText
 10
6.768174438233497
 20
0.4304455338317968
 30
0.0
 40
0.05
  1
CHECKED BY:
100
AcDbText
  0
TEXT
  5
596
330
1F
100
AcDbEntity
  8
Title Block
100
AcDbText
 10
7.520289593133067
 20
0.9281373372752312
 30
0.0
 40
0.05
  1
MATERIAL:
100
AcDbText
  0
TEXT
  5
597
330
1F
100
AcDbEntity
  8
Title Block
100
AcDbText
 10
9.265344938781542
 20
0.9281373372752312
 30
0.0
 40
0.05
  1
SCALE:
100
AcDbText
  0
TEXT
  5
598
330
1F
100
AcDbEntity
  8
Title Block
100
AcDbText
 10
9.265344938781542
 20
0.6725952630490007
 30
0.0
 40
0.05
  1
DRAWING NUMBER:
100
AcDbText
  0
TEXT
  5
599
330
1F
100
AcDbEntity
  8
Title Block
100
AcDbText
 10
10.34942622928998
 20
0.6762987650689816
 30
0.0
 40
0.05
  1
DRAWING
100
AcDbText
  0
TEXT
  5
59A
330
1F
100
AcDbEntity
  8
Title Block
100
AcDbText
 10
10.42723125590085
 20
0.2811642688682026
 30
0.0
 40
0.05
  1
SIZE
100
AcDbText
  0
TEXT
  5
59B
330
1F
100
AcDbEntity
  8
Title Block
100
AcDbText
 10
10.38647626056889
 20
0.3911285990572359
 30
0.0
 40
0.25
  1
A
100
AcDbText
  0
MTEXT
  5
59C
330
1F
100
AcDbEntity
  8
Title Block
100
AcDbMText
 10
0.375
 20
0.375
 30
0.0
 40
0.05
 41
0.25
 71
     5
 72
     5
  1
REV
 73
     1
 44
1.0
1001
ACAD
1000
MTEXTBEGIN
1070
    73
1070
     1
1070
    44
1040
1.0
1070
    74
1070
     0
1000
MTEXTEND
  0
MTEXT
  5
59D
330
1F
100
AcDbEntity
  8
Title Block
100
AcDbMText
 10
0.75
 20
0.375
 30
0.0
 40
0.05
 41
0.5
 71
     5
 72
     5
  1
DATE
 73
     1
 44
1.0
1001
ACAD
1000
MTEXTBEGIN
1070
    73
1070
     1
1070
    44
1040
1.0
1070
    74
1070
     0
1000
MTEXTEND
  0
MTEXT
  5
59E
330
1F
100
AcDbEntity
  8
Title Block
100
AcDbMText
 10
1.189999999999999
 20
0.375
 30
0.0
 40
0.05
 41
0.38
 71
     5
 72
     5
  1
BY
 73
     1
 44
1.0
1001
ACAD
1000
MTEXTBEGIN
1070
    73
1070
     1
1070
    44
1040
1.0
1070
    74
1070
     0
1000
MTEXTEND
  0
MTEXT
  5
59F
330
1F
100
AcDbEntity
  8
Title Block
100
AcDbMText
 10
1.564999999999999
 20
0.375
 30
0.0
 40
0.05
 41
0.38
 71
     5
 72
     5
  1
CHK
 73
     1
 44
1.0
1001
ACAD
1000
MTEXTBEGIN
1070
    73
1070
     1
1070
    44
1040
1.0
1070
    74
1070
     0
1000
MTEXTEND
  0
MTEXT
  5
5A0
330
1F
100
AcDbEntity
  8
Title Block
100
AcDbMText
 10
3.125
 20
0.375
 30
0.0
 40
0.05
 41
2.75
 71
     5
 72
     5
  1
DESCRIPTION
 73
     1
 44
1.0
1001
ACAD
1000
MTEXTBEGIN
1070
    73
1070
     1
1070
    44
1040
1.0
1070
    74
1070
     0
1000
MTEXTEND
  0
MTEXT
  5
5A1
330
1F
100
AcDbEntity
  8
Title Block
100
AcDbMText
 10
5.064999999999999
 20
0.375
 30
0.0
 40
0.05
 41
1.129999999999999
 71
     5
 72
     5
  1
ECN   -   R
 73
     1
 44
1.0
1001
ACAD
1000
MTEXTBEGIN
1070
    73
1070
     1
1070
    44
1040
1.0
1070
    74
1070
     0
1000
MTEXTEND
  0
MTEXT
  5
5A2
330
1F
100
AcDbEntity
  8
Title Block
100
AcDbMText
 10
5.815
 20
0.375
 30
0.0
 40
0.05
 41
0.38
 71
     5
 72
     5
  1
CUST
 73
     1
 44
1.0
1001
ACAD
1000
MTEXTBEGIN
1070
    73
1070
     1
1070
    44
1040
1.0
1070
    74
1070
     0
1000
MTEXTEND
  0
MTEXT
  5
5A3
330
1F
100
AcDbEntity
  8
Title Block
100
AcDbMText
 10
6.19
 20
0.375
 30
0.0
 40
0.05
 41
0.38
 71
     5
 72
     5
  1
SUP
 73
     1
 44
1.0
1001
ACAD
1000
MTEXTBEGIN
1070
    73
1070
     1
1070
    44
1040
1.0
1070
    74
1070
     0
1000
MTEXTEND
  0
LWPOLYLINE
  5
5A4
330
1F
100
AcDbEntity
  8
Title Block
100
AcDbPolyline
 90
        4
 70
     1
 43
0.01
 10
0.25
 20
8.250000000000001
 10
0.25
 20
0.25
 10
10.75
 20
0.25
 10
10.75
 20
8.25
  0
LINE
  5
5A5
330
1F
100
AcDbEntity
  8
Title Block
100
AcDbLine
 10
10.75
 20
2.749999999999999
 30
0.0
 11
0.25
 21
2.75
 31
0.0
  0
LINE
  5
5A6
330
1F
100
AcDbEntity
  8
Title Block
100
AcDbLine
 10
6.75
 20
2.75
 30
0.0
 11
6.75
 21
0.25
 31
0.0
  0
LINE
  5
5A7
330
1F
100
AcDbEntity
  8
Title Block
100
AcDbLine
 10
10.75
 20
2.499999999999999
 30
0.0
 11
0.25
 21
2.5
 31
0.0
  0
LINE
  5
5A8
330
1F
100
AcDbEntity
  8
Title Block
100
AcDbLine
 10
6.75
 20
2.25
 30
0.0
 11
0.25
 21
2.25
 31
0.0
  0
LINE
  5
5A9
330
1F
100
AcDbEntity
  8
Title Block
100
AcDbLine
 10
10.75
 20
1.999999999999999
 30
0.0
 11
0.25
 21
2.0
 31
0.0
  0
LINE
  5
5AA
330
1F
100
AcDbEntity
  8
Title Block
100
AcDbLine
 10
6.75
 20
1.75
 30
0.0
 11
0.25
 21
1.75
 31
0.0
  0
LINE
  5
5AB
330
1F
100
AcDbEntity
  8
Title Block
100
AcDbLine
 10
10.75
 20
1.499999999999999
 30
0.0
 11
0.25
 21
1.5
 31
0.0
  0
LINE
  5
5AC
330
1F
100
AcDbEntity
  8
Title Block
100
AcDbLine
 10
6.75
 20
1.25
 30
0.0
 11
0.25
 21
1.25
 31
0.0
  0
LINE
  5
5AD
330
1F
100
AcDbEntity
  8
Title Block
100
AcDbLine
 10
10.75
 20
0.9999999999999996
 30
0.0
 11
0.25
 21
1.0
 31
0.0
  0
LINE
  5
5AE
330
1F
100
AcDbEntity
  8
Title Block
100
AcDbLine
 10
7.5
 20
0.75
 30
0.0
 11
0.25
 21
0.7500000000000009
 31
0.0
  0
LINE
  5
5AF
330
1F
100
AcDbEntity
  8
Title Block
100
AcDbLine
 10
7.5
 20
0.5
 30
0.0
 11
0.25
 21
0.5000000000000009
 31
0.0
  0
LINE
  5
5B0
330
1F
100
AcDbEntity
  8
Title Block
100
AcDbLine
 10
0.25
 20
0.25
 30
0.0
 11
0.25
 21
2.75
 31
0.0
  0
LINE
  5
5B1
330
1F
100
AcDbEntity
  8
Title Block
100
AcDbLine
 10
0.5
 20
0.25
 30
0.0
 11
0.5
 21
2.750000000000001
 31
0.0
  0
LINE
  5
5B2
330
1F
100
AcDbEntity
  8
Title Block
100
AcDbLine
 10
1.0
 20
0.25
 30
0.0
 11
1.0
 21
2.750000000000001
 31
0.0
  0
LINE
  5
5B3
330
1F
100
AcDbEntity
  8
Title Block
100
AcDbLine
 10
1.375
 20
0.25
 30
0.0
 11
1.375
 21
2.750000000000001
 31
0.0
  0
LINE
  5
5B4
330
1F
100
AcDbEntity
  8
Title Block
100
AcDbLine
 10
1.75
 20
0.25
 30
0.0
 11
1.75
 21
2.750000000000001
 31
0.0
  0
LINE
  5
5B5
330
1F
100
AcDbEntity
  8
Title Block
100
AcDbLine
 10
6.375
 20
2.75
 30
0.0
 11
6.375
 21
0.25
 31
0.0
  0
LINE
  5
5B6
330
1F
100
AcDbEntity
  8
Title Block
100
AcDbLine
 10
6.0
 20
2.75
 30
0.0
 11
6.0
 21
0.25
 31
0.0
  0
LINE
  5
5B7
330
1F
100
AcDbEntity
  8
Title Block
100
AcDbLine
 10
5.625
 20
2.75
 30
0.0
 11
5.625
 21
0.25
 31
0.0
  0
LINE
  5
5B8
330
1F
100
AcDbEntity
  8
Title Block
100
AcDbLine
 10
5.25
 20
2.75
 30
0.0
 11
5.25
 21
0.5000000000000002
 31
0.0
  0
LINE
  5
5B9
330
1F
100
AcDbEntity
  8
Title Block
100
AcDbLine
 10
4.5
 20
2.75
 30
0.0
 11
4.5
 21
0.25
 31
0.0
  0
LINE
  5
5BA
330
1F
100
AcDbEntity
  8
Title Block
100
AcDbLine
 10
9.25
 20
0.75
 30
0.0
 11
9.25
 21
1.499999999999999
 31
0.0
  0
LINE
  5
5BB
330
1F
100
AcDbEntity
  8
Title Block
100
AcDbLine
 10
9.25
 20
0.75
 30
0.0
 11
9.25
 21
0.25
 31
0.0
  0
LINE
  5
5BC
330
1F
100
AcDbEntity
  8
Title Block
100
AcDbLine
 10
9.25
 20
0.75
 30
0.0
 11
10.75
 21
0.75
 31
0.0
  0
LINE
  5
5BD
330
1F
100
AcDbEntity
  8
Title Block
100
AcDbLine
 10
7.5
 20
0.5
 30
0.0
 11
7.5
 21
0.25
 31
0.0
  0
LINE
  5
5BE
330
1F
100
AcDbEntity
  8
Title Block
100
AcDbLine
 10
7.5
 20
0.5
 30
0.0
 11
7.5
 21
1.0
 31
0.0
  0
LINE
  5
5BF
330
1F
100
AcDbEntity
  8
Title Block
100
AcDbLine
 10
10.25
 20
0.75
 30
0.0
 11
10.25
 21
0.25
 31
0.0
  0
POINT
  5
5C0
330
1F
100
AcDbEntity
  8
Title Block
100
AcDbPoint
 10
11.0
 20
8.5
 30
0.0
  0
POINT
  5
5C1
330
1F
100
AcDbEntity
  8
Title Block
100
AcDbPoint
 10
11.0
 20
0.0
 30
0.0
  0
POINT
  5
5C2
330
1F
100
AcDbEntity
  8
Title Block
100
AcDbPoint
 10
0.0
 20
0.0
 30
0.0
  0
POINT
  5
5C3
330
1F
100
AcDbEntity
  8
Title Block
100
AcDbPoint
 10
0.0
 20
8.500000000000001
 30
0.0
  0
MTEXT
  5
5C4
330
1F
100
AcDbEntity
  8
Text
100
AcDbMText
 10
0.375
 20
0.6250000000000009
 30
0.0
 40
0.09
 41
0.25
 71
     5
 72
     5
  1
R
 73
     1
 44
1.0
1001
ACAD
1000
MTEXTBEGIN
1070
    73
1070
     1
1070
    44
1040
1.0
1070
    74
1070
     0
1000
MTEXTEND
  0
MTEXT
  5
5C5
330
1F
100
AcDbEntity
  8
Text
100
AcDbMText
 10
0.75
 20
0.6250000000000009
 30
0.0
 40
0.07
 41
0.5
 71
     5
 72
     5
  1
10-30-00
 73
     1
 44
1.0
1001
ACAD
1000
MTEXTBEGIN
1070
    73
1070
     1
1070
    44
1040
1.0
1070
    74
1070
     0
1000
MTEXTEND
  0
MTEXT
  5
5C6
330
1F
100
AcDbEntity
  8
Text
100
AcDbMText
 10
1.1875
 20
0.6250000000000009
 30
0.0
 40
0.09
 41
0.375
 71
     5
 72
     5
  1
MSO
 73
     1
 44
1.0
1001
ACAD
1000
MTEXTBEGIN
1070
    73
1070
     1
1070
    44
1040
1.0
1070
    74
1070
     0
1000
MTEXTEND
  0
MTEXT
  5
5C7
330
1F
100
AcDbEntity
  8
Text
100
AcDbMText
 10
1.5625
 20
0.6250000000000009
 30
0.0
 40
0.09
 41
0.375
 71
     5
 72
     5
  1
HIW
 73
     1
 44
1.0
1001
ACAD
1000
MTEXTBEGIN
1070
    73
1070
     1
1070
    44
1040
1.0
1070
    74
1070
     0
1000
MTEXTEND
  0
MTEXT
  5
5C8
330
1F
100
AcDbEntity
  8
Text
100
AcDbMText
 10
3.125
 20
0.6250000000000005
 30
0.0
 40
0.09
 41
2.75
 71
     5
 72
     5
  1
DRAWING RELEASED
 73
     1
 44
1.0
1001
ACAD
1000
MTEXTBEGIN
1070
    73
1070
     1
1070
    44
1040
1.0
1070
    74
1070
     0
1000
MTEXTEND
  0
MTEXT
  5
5C9
330
1F
100
AcDbEntity
  8
Text
100
AcDbMText
 10
7.474999999999999
 20
0.85
 30
0.0
 40
0.09
 41
0.75
 71
     6
 72
     5
  1
MSO
 73
     1
 44
1.0
1001
ACAD
1000
MTEXTBEGIN
1070
    73
1070
     1
1070
    44
1040
1.0
1070
    74
1070
     0
1000
MTEXTEND
  0
MTEXT
  5
5CA
330
1F
100
AcDbEntity
  8
Text
100
AcDbMText
 10
7.474999999999999
 20
0.5999999999999999
 30
0.0
 40
0.09
 41
0.75
 71
     6
 72
     5
  1
10-30-00
 73
     1
 44
1.0
1001
ACAD
1000
MTEXTBEGIN
1070
    73
1070
     1
1070
    44
1040
1.0
1070
    74
1070
     0
1000
MTEXTEND
  0
MTEXT
  5
5CB
330
1F
100
AcDbEntity
  8
Text
100
AcDbMText
 10
7.474999999999999
 20
0.3500000000000001
 30
0.0
 40
0.09
 41
0.75
 71
     6
 72
     5
  1
HIW
 73
     1
 44
1.0
1001
ACAD
1000
MTEXTBEGIN
1070
    73
1070
     1
1070
    44
1040
1.0
1070
    74
1070
     0
1000
MTEXTEND
  0
MTEXT
  5
5CC
330
1F
100
AcDbEntity
  8
Text
100
AcDbMText
 10
8.75
 20
2.625
 30
0.0
 40
0.09
 41
4.0
 71
     5
 72
     5
  1
FR6X4.dwg
 73
     1
 44
1.0
1001
ACAD
1000
MTEXTBEGIN
1070
    73
1070
     1
1070
    44
1040
1.0
1070
    74
1070
     0
1000
MTEXTEND
  0
MTEXT
  5
5CD
330
1F
100
AcDbEntity
  8
Text
100
AcDbMText
 10
8.75
 20
1.75
 30
0.0
 40
0.09
 41
4.0
 71
     5
 72
     5
  1
FIBERRUNNER 6x4 CHANNEL\P(FR6X4)\PMARKETING DRAWING
 73
     1
 44
1.0
1001
ACAD
1000
MTEXTBEGIN
1070
    73
1070
     1
1070
    44
1040
1.0
1070
    74
1070
     0
1000
MTEXTEND
  0
MTEXT
  5
5CE
330
1F
100
AcDbEntity
  8
Text
100
AcDbMText
 10
10.0
 20
0.8749999999999998
 30
0.0
 40
0.12
 41
1.5
 71
     5
 72
     5
  1
FULL
 73
     1
 44
1.0
1001
ACAD
1000
MTEXTBEGIN
1070
    73
1070
     1
1070
    44
1040
1.0
1070
    74
1070
     0
1000
MTEXTEND
  0
MTEXT
  5
5CF
330
1F
100
AcDbEntity
  8
Text
100
AcDbMText
 10
9.75
 20
0.5
 30
0.0
 40
0.12
 41
1.0
 71
     5
 72
     5
  1
36897-266
 73
     1
 44
1.0
1001
ACAD
1000
MTEXTBEGIN
1070
    73
1070
     1
1070
    44
1040
1.0
1070
    74
1070
     0
1000
MTEXTEND
  0
LINE
  5
5E9
330
1F
100
AcDbEntity
  8
Object
100
AcDbLine
 10
4.087737129496699
 20
3.285160616226674
 30
0.0
 11
4.086737129496698
 21
3.280160616226674
 31
0.0
  0
LINE
  5
5EA
330
1F
100
AcDbEntity
  8
Object
100
AcDbLine
 10
4.086737129496698
 20
3.280160616226674
 30
0.0
 11
4.082737129496699
 21
3.277160616226674
 31
0.0
  0
LINE
  5
5EB
330
1F
100
AcDbEntity
  8
Object
100
AcDbLine
 10
4.082737129496699
 20
3.277160616226674
 30
0.0
 11
4.077737129496698
 21
3.275160616226674
 31
0.0
  0
LINE
  5
5EC
330
1F
100
AcDbEntity
  8
Object
100
AcDbLine
 10
4.087737129496699
 20
3.499160616226673
 30
0.0
 11
4.087737129496699
 21
3.285160616226674
 31
0.0
  0
LINE
  5
5ED
330
1F
100
AcDbEntity
  8
Object
100
AcDbLine
 10
8.671737129496699
 20
7.074160616226674
 30
0.0
 11
8.685737129496699
 21
7.051160616226674
 31
0.0
  0
LINE
  5
5EE
330
1F
100
AcDbEntity
  8
Object
100
AcDbLine
 10
8.685737129496699
 20
7.051160616226674
 30
0.0
 11
8.689737129496698
 21
7.025160616226674
 31
0.0
  0
LINE
  5
5EF
330
1F
100
AcDbEntity
  8
Object
100
AcDbLine
 10
8.671737129496699
 20
7.074160616226674
 30
0.0
 11
8.650737129496699
 21
7.089160616226673
 31
0.0
  0
LINE
  5
5F0
330
1F
100
AcDbEntity
  8
Object
100
AcDbLine
 10
8.650737129496699
 20
7.089160616226673
 30
0.0
 11
8.624737129496699
 21
7.094160616226674
 31
0.0
  0
LINE
  5
5F1
330
1F
100
AcDbEntity
  8
Object
100
AcDbLine
 10
8.594737129496699
 20
7.287160616226674
 30
0.0
 11
8.589737129496699
 21
7.263160616226674
 31
0.0
  0
LINE
  5
5F2
330
1F
100
AcDbEntity
  8
Object
100
AcDbLine
 10
8.589737129496699
 20
7.263160616226674
 30
0.0
 11
8.575737129496699
 21
7.243160616226674
 31
0.0
  0
LINE
  5
5F3
330
1F
100
AcDbEntity
  8
Object
100
AcDbLine
 10
8.557737129496699
 20
6.956160616226673
 30
0.0
 11
8.558737129496698
 21
6.948160616226673
 31
0.0
  0
LINE
  5
5F4
330
1F
100
AcDbEntity
  8
Object
100
AcDbLine
 10
8.5557371294967
 20
7.229160616226674
 30
0.0
 11
8.575737129496699
 21
7.243160616226674
 31
0.0
  0
LINE
  5
5F5
330
1F
100
AcDbEntity
  8
Object
100
AcDbLine
 10
8.553737129496699
 20
6.963160616226674
 30
0.0
 11
8.557737129496699
 21
6.956160616226673
 31
0.0
  0
LINE
  5
5F6
330
1F
100
AcDbEntity
  8
Object
100
AcDbLine
 10
8.558737129496698
 20
6.948160616226673
 30
0.0
 11
8.5527371294967
 21
6.858160616226673
 31
0.0
  0
LINE
  5
5F7
330
1F
100
AcDbEntity
  8
Object
100
AcDbLine
 10
8.546737129496699
 20
6.968160616226674
 30
0.0
 11
8.553737129496699
 21
6.963160616226674
 31
0.0
  0
LINE
  5
5F8
330
1F
100
AcDbEntity
  8
Object
100
AcDbLine
 10
8.542737129496698
 20
6.751160616226674
 30
0.0
 11
8.544737129496699
 21
6.743160616226674
 31
0.0
  0
LINE
  5
5F9
330
1F
100
AcDbEntity
  8
Object
100
AcDbLine
 10
8.5527371294967
 20
6.858160616226673
 30
0.0
 11
8.549737129496699
 21
6.848160616226674
 31
0.0
  0
LINE
  5
5FA
330
1F
100
AcDbEntity
  8
Object
100
AcDbLine
 10
8.549737129496699
 20
6.848160616226674
 30
0.0
 11
8.541737129496699
 21
6.842160616226673
 31
0.0
  0
LINE
  5
5FB
330
1F
100
AcDbEntity
  8
Object
100
AcDbLine
 10
8.538737129496698
 20
6.758160616226674
 30
0.0
 11
8.542737129496698
 21
6.751160616226674
 31
0.0
  0
LINE
  5
5FC
330
1F
100
AcDbEntity
  8
Object
100
AcDbLine
 10
8.538737129496698
 20
6.969160616226674
 30
0.0
 11
8.546737129496699
 21
6.968160616226674
 31
0.0
  0
LINE
  5
5FD
330
1F
100
AcDbEntity
  8
Object
100
AcDbLine
 10
8.532737129496698
 20
6.763160616226674
 30
0.0
 11
8.538737129496698
 21
6.758160616226674
 31
0.0
  0
LINE
  5
5FE
330
1F
100
AcDbEntity
  8
Object
100
AcDbLine
 10
8.541737129496699
 20
6.842160616226673
 30
0.0
 11
8.532737129496698
 21
6.839160616226673
 31
0.0
  0
LINE
  5
5FF
330
1F
100
AcDbEntity
  8
Object
100
AcDbLine
 10
8.531737129496699
 20
7.224160616226674
 30
0.0
 11
8.5557371294967
 21
7.229160616226674
 31
0.0
  0
LINE
  5
600
330
1F
100
AcDbEntity
  8
Object
100
AcDbLine
 10
8.524737129496699
 20
6.764160616226674
 30
0.0
 11
8.532737129496698
 21
6.763160616226674
 31
0.0
  0
LINE
  5
601
330
1F
100
AcDbEntity
  8
Object
100
AcDbLine
 10
8.531737129496699
 20
7.224160616226674
 30
0.0
 11
8.5077371294967
 21
7.229160616226674
 31
0.0
  0
LINE
  5
602
330
1F
100
AcDbEntity
  8
Object
100
AcDbLine
 10
8.5077371294967
 20
7.229160616226674
 30
0.0
 11
8.487737129496698
 21
7.243160616226674
 31
0.0
  0
LINE
  5
603
330
1F
100
AcDbEntity
  8
Object
100
AcDbLine
 10
8.4757371294967
 20
3.965160616226674
 30
0.0
 11
8.689737129496698
 21
7.025160616226674
 31
0.0
  0
LINE
  5
604
330
1F
100
AcDbEntity
  8
Object
100
AcDbLine
 10
8.487737129496698
 20
7.243160616226674
 30
0.0
 11
8.474737129496698
 21
7.263160616226674
 31
0.0
  0
LINE
  5
605
330
1F
100
AcDbEntity
  8
Object
100
AcDbLine
 10
8.474737129496698
 20
7.263160616226674
 30
0.0
 11
8.469737129496699
 21
7.287160616226674
 31
0.0
  0
LINE
  5
606
330
1F
100
AcDbEntity
  8
Object
100
AcDbLine
 10
8.469737129496699
 20
7.287160616226674
 30
0.0
 11
8.469737129496699
 21
7.430160616226674
 31
0.0
  0
LINE
  5
607
330
1F
100
AcDbEntity
  8
Object
100
AcDbLine
 10
8.594737129496699
 20
7.287160616226674
 30
0.0
 11
8.594737129496699
 21
7.469160616226674
 31
0.0
  0
LINE
  5
608
330
1F
100
AcDbEntity
  8
Object
100
AcDbLine
 10
8.569737129496699
 20
7.543160616226674
 30
0.0
 11
8.588737129496699
 21
7.508160616226674
 31
0.0
  0
LINE
  5
609
330
1F
100
AcDbEntity
  8
Object
100
AcDbLine
 10
8.588737129496699
 20
7.508160616226674
 30
0.0
 11
8.594737129496699
 21
7.469160616226674
 31
0.0
  0
LINE
  5
60A
330
1F
100
AcDbEntity
  8
Object
100
AcDbLine
 10
8.467737129496699
 20
7.440160616226674
 30
0.0
 11
8.469737129496699
 21
7.430160616226674
 31
0.0
  0
LINE
  5
60B
330
1F
100
AcDbEntity
  8
Object
100
AcDbLine
 10
8.506737129496698
 20
7.588160616226674
 30
0.0
 11
8.541737129496699
 21
7.571160616226674
 31
0.0
  0
LINE
  5
60C
330
1F
100
AcDbEntity
  8
Object
100
AcDbLine
 10
8.541737129496699
 20
7.571160616226674
 30
0.0
 11
8.569737129496699
 21
7.543160616226674
 31
0.0
  0
LINE
  5
60D
330
1F
100
AcDbEntity
  8
Object
100
AcDbLine
 10
8.460737129496699
 20
7.448160616226674
 30
0.0
 11
8.467737129496699
 21
7.440160616226674
 31
0.0
  0
LINE
  5
60E
330
1F
100
AcDbEntity
  8
Object
100
AcDbLine
 10
8.506737129496698
 20
7.588160616226674
 30
0.0
 11
8.467737129496699
 21
7.594160616226674
 31
0.0
  0
LINE
  5
60F
330
1F
100
AcDbEntity
  8
Object
100
AcDbLine
 10
8.460737129496699
 20
7.448160616226674
 30
0.0
 11
8.451737129496699
 21
7.453160616226674
 31
0.0
  0
LINE
  5
610
330
1F
100
AcDbEntity
  8
Object
100
AcDbLine
 10
8.451737129496699
 20
7.453160616226674
 30
0.0
 11
8.441737129496699
 21
7.454160616226674
 31
0.0
  0
LINE
  5
611
330
1F
100
AcDbEntity
  8
Object
100
AcDbLine
 10
8.467737129496699
 20
7.594160616226674
 30
0.0
 11
8.428737129496699
 21
7.587160616226674
 31
0.0
  0
LINE
  5
612
330
1F
100
AcDbEntity
  8
Object
100
AcDbLine
 10
8.428737129496699
 20
7.587160616226674
 30
0.0
 11
8.369737129496698
 21
7.559160616226674
 31
0.0
  0
LINE
  5
613
330
1F
100
AcDbEntity
  8
Object
100
AcDbLine
 10
8.431737129496699
 20
7.451160616226673
 30
0.0
 11
8.441737129496699
 21
7.454160616226674
 31
0.0
  0
LINE
  5
614
330
1F
100
AcDbEntity
  8
Object
100
AcDbLine
 10
8.624737129496699
 20
7.094160616226674
 30
0.0
 11
8.359737129496698
 21
7.094160616226674
 31
0.0
  0
LINE
  5
615
330
1F
100
AcDbEntity
  8
Object
100
AcDbLine
 10
8.462737129496698
 20
3.884160616226674
 30
0.0
 11
8.4757371294967
 21
3.965160616226674
 31
0.0
  0
LINE
  5
616
330
1F
100
AcDbEntity
  8
Object
100
AcDbLine
 10
8.544737129496699
 20
6.743160616226674
 30
0.0
 11
8.3507371294967
 21
3.974160616226674
 31
0.0
  0
LINE
  5
617
330
1F
100
AcDbEntity
  8
Object
100
AcDbLine
 10
8.3507371294967
 20
3.974160616226674
 30
0.0
 11
8.339737129496699
 21
3.906160616226673
 31
0.0
  0
LINE
  5
618
330
1F
100
AcDbEntity
  8
Object
100
AcDbLine
 10
8.437737129496699
 20
3.807160616226674
 30
0.0
 11
8.462737129496698
 21
3.884160616226674
 31
0.0
  0
LINE
  5
619
330
1F
100
AcDbEntity
  8
Object
100
AcDbLine
 10
8.393737129496699
 20
7.420160616226674
 30
0.0
 11
8.431737129496699
 21
7.451160616226673
 31
0.0
  0
LINE
  5
61A
330
1F
100
AcDbEntity
  8
Object
100
AcDbLine
 10
8.369737129496698
 20
7.559160616226674
 30
0.0
 11
8.316737129496699
 21
7.520160616226673
 31
0.0
  0
LINE
  5
61B
330
1F
100
AcDbEntity
  8
Object
100
AcDbLine
 10
8.3987371294967
 20
3.735160616226674
 30
0.0
 11
8.437737129496699
 21
3.807160616226674
 31
0.0
  0
LINE
  5
61C
330
1F
100
AcDbEntity
  8
Object
100
AcDbLine
 10
8.339737129496699
 20
3.906160616226673
 30
0.0
 11
8.315737129496699
 21
3.842160616226674
 31
0.0
  0
LINE
  5
61D
330
1F
100
AcDbEntity
  8
Object
100
AcDbLine
 10
8.532737129496698
 20
6.839160616226673
 30
0.0
 11
8.297737129496699
 21
6.839160616226673
 31
0.0
  0
LINE
  5
61E
330
1F
100
AcDbEntity
  8
Object
100
AcDbLine
 10
8.315737129496699
 20
3.842160616226674
 30
0.0
 11
8.280737129496699
 21
3.783160616226674
 31
0.0
  0
LINE
  5
61F
330
1F
100
AcDbEntity
  8
Object
100
AcDbLine
 10
8.349737129496698
 20
3.670160616226674
 30
0.0
 11
8.3987371294967
 21
3.735160616226674
 31
0.0
  0
LINE
  5
620
330
1F
100
AcDbEntity
  8
Object
100
AcDbLine
 10
8.341737129496699
 20
7.104160616226674
 30
0.0
 11
8.349737129496698
 21
7.097160616226673
 31
0.0
  0
LINE
  5
621
330
1F
100
AcDbEntity
  8
Object
100
AcDbLine
 10
8.349737129496698
 20
7.097160616226673
 30
0.0
 11
8.359737129496698
 21
7.094160616226674
 31
0.0
  0
LINE
  5
622
330
1F
100
AcDbEntity
  8
Object
100
AcDbLine
 10
8.279737129496698
 20
6.969160616226674
 30
0.0
 11
8.538737129496698
 21
6.969160616226674
 31
0.0
  0
LINE
  5
623
330
1F
100
AcDbEntity
  8
Object
100
AcDbLine
 10
8.316737129496699
 20
7.520160616226673
 30
0.0
 11
8.2737371294967
 21
7.471160616226674
 31
0.0
  0
LINE
  5
624
330
1F
100
AcDbEntity
  8
Object
100
AcDbLine
 10
8.3637371294967
 20
7.381160616226674
 30
0.0
 11
8.393737129496699
 21
7.420160616226674
 31
0.0
  0
LINE
  5
625
330
1F
100
AcDbEntity
  8
Object
100
AcDbLine
 10
8.259737129496699
 20
6.764160616226674
 30
0.0
 11
8.524737129496699
 21
6.764160616226674
 31
0.0
  0
LINE
  5
626
330
1F
100
AcDbEntity
  8
Object
100
AcDbLine
 10
8.2547371294967
 20
6.859160616226674
 30
0.0
 11
8.294737129496699
 21
6.859160616226674
 31
0.0
  0
LINE
  5
627
330
1F
100
AcDbEntity
  8
Object
100
AcDbLine
 10
8.294737129496699
 20
6.859160616226674
 30
0.0
 11
8.297737129496699
 21
6.839160616226673
 31
0.0
  0
LINE
  5
628
330
1F
100
AcDbEntity
  8
Object
100
AcDbLine
 10
8.2547371294967
 20
6.974160616226674
 30
0.0
 11
8.279737129496698
 21
6.969160616226674
 31
0.0
  0
LINE
  5
629
330
1F
100
AcDbEntity
  8
Object
100
AcDbLine
 10
8.345737129496699
 20
7.335160616226674
 30
0.0
 11
8.3637371294967
 21
7.381160616226674
 31
0.0
  0
LINE
  5
62A
330
1F
100
AcDbEntity
  8
Object
100
AcDbLine
 10
8.2737371294967
 20
7.471160616226674
 30
0.0
 11
8.2417371294967
 21
7.414160616226673
 31
0.0
  0
LINE
  5
62B
330
1F
100
AcDbEntity
  8
Object
100
AcDbLine
 10
8.237737129496698
 20
6.770160616226673
 30
0.0
 11
8.259737129496699
 21
6.764160616226674
 31
0.0
  0
LINE
  5
62C
330
1F
100
AcDbEntity
  8
Object
100
AcDbLine
 10
8.2547371294967
 20
6.859160616226674
 30
0.0
 11
8.237737129496698
 21
6.849160616226674
 31
0.0
  0
LINE
  5
62D
330
1F
100
AcDbEntity
  8
Object
100
AcDbLine
 10
8.2897371294967
 20
3.614160616226674
 30
0.0
 11
8.349737129496698
 21
3.670160616226674
 31
0.0
  0
LINE
  5
62E
330
1F
100
AcDbEntity
  8
Object
100
AcDbLine
 10
8.280737129496699
 20
3.783160616226674
 30
0.0
 11
8.235737129496699
 21
3.732160616226674
 31
0.0
  0
LINE
  5
62F
330
1F
100
AcDbEntity
  8
Object
100
AcDbLine
 10
8.233737129496699
 20
6.988160616226673
 30
0.0
 11
8.2547371294967
 21
6.974160616226674
 31
0.0
  0
LINE
  5
630
330
1F
100
AcDbEntity
  8
Object
100
AcDbLine
 10
8.2417371294967
 20
7.414160616226673
 30
0.0
 11
8.221737129496698
 21
7.352160616226674
 31
0.0
  0
LINE
  5
631
330
1F
100
AcDbEntity
  8
Object
100
AcDbLine
 10
8.339737129496699
 20
7.287160616226674
 30
0.0
 11
8.345737129496699
 21
7.335160616226674
 31
0.0
  0
LINE
  5
632
330
1F
100
AcDbEntity
  8
Object
100
AcDbLine
 10
8.220737129496699
 20
6.787160616226674
 30
0.0
 11
8.237737129496698
 21
6.770160616226673
 31
0.0
  0
LINE
  5
633
330
1F
100
AcDbEntity
  8
Object
100
AcDbLine
 10
8.237737129496698
 20
6.849160616226674
 30
0.0
 11
8.220737129496699
 21
6.833160616226674
 31
0.0
  0
LINE
  5
634
330
1F
100
AcDbEntity
  8
Object
100
AcDbLine
 10
8.219737129496699
 20
7.009160616226674
 30
0.0
 11
8.233737129496699
 21
6.988160616226673
 31
0.0
  0
LINE
  5
635
330
1F
100
AcDbEntity
  8
Object
100
AcDbLine
 10
8.221737129496698
 20
7.352160616226674
 30
0.0
 11
8.214737129496699
 21
7.287160616226674
 31
0.0
  0
LINE
  5
636
330
1F
100
AcDbEntity
  8
Object
100
AcDbLine
 10
8.220737129496699
 20
6.787160616226674
 30
0.0
 11
8.214737129496699
 21
6.810160616226673
 31
0.0
  0
LINE
  5
637
330
1F
100
AcDbEntity
  8
Object
100
AcDbLine
 10
8.214737129496699
 20
6.810160616226673
 30
0.0
 11
8.220737129496699
 21
6.833160616226674
 31
0.0
  0
LINE
  5
638
330
1F
100
AcDbEntity
  8
Object
100
AcDbLine
 10
8.214737129496699
 20
7.034160616226674
 30
0.0
 11
8.219737129496699
 21
7.009160616226674
 31
0.0
  0
LINE
  5
639
330
1F
100
AcDbEntity
  8
Object
100
AcDbLine
 10
8.339737129496699
 20
7.114160616226674
 30
0.0
 11
8.339737129496699
 21
7.287160616226674
 31
0.0
  0
LINE
  5
63A
330
1F
100
AcDbEntity
  8
Object
100
AcDbLine
 10
8.214737129496699
 20
7.287160616226674
 30
0.0
 11
8.214737129496699
 21
7.034160616226674
 31
0.0
  0
LINE
  5
63B
330
1F
100
AcDbEntity
  8
Object
100
AcDbLine
 10
8.341737129496699
 20
7.104160616226674
 30
0.0
 11
8.339737129496699
 21
7.114160616226674
 31
0.0
  0
LINE
  5
63C
330
1F
100
AcDbEntity
  8
Object
100
AcDbLine
 10
8.235737129496699
 20
3.732160616226674
 30
0.0
 11
8.181737129496699
 21
3.691160616226674
 31
0.0
  0
LINE
  5
63D
330
1F
100
AcDbEntity
  8
Object
100
AcDbLine
 10
8.2897371294967
 20
3.614160616226674
 30
0.0
 11
8.221737129496698
 21
3.569160616226674
 31
0.0
  0
LINE
  5
63E
330
1F
100
AcDbEntity
  8
Object
100
AcDbLine
 10
8.221737129496698
 20
3.569160616226674
 30
0.0
 11
8.146737129496699
 21
3.536160616226673
 31
0.0
  0
LINE
  5
63F
330
1F
100
AcDbEntity
  8
Object
100
AcDbLine
 10
8.181737129496699
 20
3.691160616226674
 30
0.0
 11
8.120737129496699
 21
3.660160616226674
 31
0.0
  0
LINE
  5
640
330
1F
100
AcDbEntity
  8
Object
100
AcDbLine
 10
8.120737129496699
 20
3.660160616226674
 30
0.0
 11
8.054737129496698
 21
3.641160616226674
 31
0.0
  0
LINE
  5
641
330
1F
100
AcDbEntity
  8
Object
100
AcDbLine
 10
8.146737129496699
 20
3.536160616226673
 30
0.0
 11
8.067737129496698
 21
3.516160616226674
 31
0.0
  0
LINE
  5
642
330
1F
100
AcDbEntity
  8
Object
100
AcDbLine
 10
8.067737129496698
 20
3.516160616226674
 30
0.0
 11
7.986737129496699
 21
3.509160616226674
 31
0.0
  0
LINE
  5
643
330
1F
100
AcDbEntity
  8
Object
100
AcDbLine
 10
8.054737129496698
 20
3.641160616226674
 30
0.0
 11
7.986737129496699
 21
3.634160616226674
 31
0.0
  0
LINE
  5
644
330
1F
100
AcDbEntity
  8
Object
100
AcDbLine
 10
7.799737129496699
 20
3.273160616226673
 30
0.0
 11
7.804737129496698
 21
3.268160616226674
 31
0.0
  0
LINE
  5
645
330
1F
100
AcDbEntity
  8
Object
100
AcDbLine
 10
7.804737129496698
 20
3.268160616226674
 30
0.0
 11
7.806737129496699
 21
3.260160616226674
 31
0.0
  0
LINE
  5
646
330
1F
100
AcDbEntity
  8
Object
100
AcDbLine
 10
7.806737129496699
 20
3.165160616226674
 30
0.0
 11
7.804737129496698
 21
3.158160616226674
 31
0.0
  0
LINE
  5
647
330
1F
100
AcDbEntity
  8
Object
100
AcDbLine
 10
7.804737129496698
 20
3.158160616226674
 30
0.0
 11
7.799737129496699
 21
3.152160616226674
 31
0.0
  0
LINE
  5
648
330
1F
100
AcDbEntity
  8
Object
100
AcDbLine
 10
7.799737129496699
 20
3.273160616226673
 30
0.0
 11
7.791737129496699
 21
3.275160616226674
 31
0.0
  0
LINE
  5
649
330
1F
100
AcDbEntity
  8
Object
100
AcDbLine
 10
7.806737129496699
 20
3.165160616226674
 30
0.0
 11
7.806737129496699
 21
3.260160616226674
 31
0.0
  0
LINE
  5
64A
330
1F
100
AcDbEntity
  8
Object
100
AcDbLine
 10
7.791737129496699
 20
3.150160616226674
 30
0.0
 11
7.799737129496699
 21
3.152160616226674
 31
0.0
  0
LINE
  5
64B
330
1F
100
AcDbEntity
  8
Object
100
AcDbLine
 10
7.591737129496698
 20
3.509160616226674
 30
0.0
 11
7.986737129496699
 21
3.509160616226674
 31
0.0
  0
LINE
  5
64C
330
1F
100
AcDbEntity
  8
Object
100
AcDbLine
 10
7.791737129496699
 20
3.275160616226674
 30
0.0
 11
7.591737129496698
 21
3.275160616226674
 31
0.0
  0
LINE
  5
64D
330
1F
100
AcDbEntity
  8
Object
100
AcDbLine
 10
7.581737129496699
 20
3.285160616226674
 30
0.0
 11
7.581737129496699
 21
3.499160616226673
 31
0.0
  0
LINE
  5
64E
330
1F
100
AcDbEntity
  8
Object
100
AcDbLine
 10
7.456737129496699
 20
3.499160616226673
 30
0.0
 11
7.456737129496699
 21
3.285160616226674
 31
0.0
  0
LINE
  5
64F
330
1F
100
AcDbEntity
  8
Object
100
AcDbLine
 10
7.586737129496698
 20
3.508160616226674
 30
0.0
 11
7.582737129496699
 21
3.504160616226673
 31
0.0
  0
LINE
  5
650
330
1F
100
AcDbEntity
  8
Object
100
AcDbLine
 10
7.582737129496699
 20
3.504160616226673
 30
0.0
 11
7.581737129496699
 21
3.499160616226673
 31
0.0
  0
LINE
  5
651
330
1F
100
AcDbEntity
  8
Object
100
AcDbLine
 10
7.455737129496699
 20
3.504160616226673
 30
0.0
 11
7.456737129496699
 21
3.499160616226673
 31
0.0
  0
LINE
  5
652
330
1F
100
AcDbEntity
  8
Object
100
AcDbLine
 10
7.456737129496699
 20
3.285160616226674
 30
0.0
 11
7.455737129496699
 21
3.280160616226674
 31
0.0
  0
LINE
  5
653
330
1F
100
AcDbEntity
  8
Object
100
AcDbLine
 10
7.581737129496699
 20
3.285160616226674
 30
0.0
 11
7.582737129496699
 21
3.280160616226674
 31
0.0
  0
LINE
  5
654
330
1F
100
AcDbEntity
  8
Object
100
AcDbLine
 10
7.582737129496699
 20
3.280160616226674
 30
0.0
 11
7.586737129496698
 21
3.277160616226674
 31
0.0
  0
LINE
  5
655
330
1F
100
AcDbEntity
  8
Object
100
AcDbLine
 10
7.451737129496699
 20
3.508160616226674
 30
0.0
 11
7.455737129496699
 21
3.504160616226673
 31
0.0
  0
LINE
  5
656
330
1F
100
AcDbEntity
  8
Object
100
AcDbLine
 10
7.455737129496699
 20
3.280160616226674
 30
0.0
 11
7.451737129496699
 21
3.277160616226674
 31
0.0
  0
LINE
  5
657
330
1F
100
AcDbEntity
  8
Object
100
AcDbLine
 10
7.586737129496698
 20
3.508160616226674
 30
0.0
 11
7.591737129496698
 21
3.509160616226674
 31
0.0
  0
LINE
  5
658
330
1F
100
AcDbEntity
  8
Object
100
AcDbLine
 10
7.446737129496699
 20
3.509160616226674
 30
0.0
 11
7.451737129496699
 21
3.508160616226674
 31
0.0
  0
LINE
  5
659
330
1F
100
AcDbEntity
  8
Object
100
AcDbLine
 10
7.591737129496698
 20
3.275160616226674
 30
0.0
 11
7.586737129496698
 21
3.277160616226674
 31
0.0
  0
LINE
  5
65A
330
1F
100
AcDbEntity
  8
Object
100
AcDbLine
 10
7.451737129496699
 20
3.277160616226674
 30
0.0
 11
7.446737129496699
 21
3.275160616226674
 31
0.0
  0
LINE
  5
65B
330
1F
100
AcDbEntity
  8
Object
100
AcDbLine
 10
7.246737129496699
 20
3.150160616226674
 30
0.0
 11
7.791737129496699
 21
3.150160616226674
 31
0.0
  0
LINE
  5
65C
330
1F
100
AcDbEntity
  8
Object
100
AcDbLine
 10
7.446737129496699
 20
3.275160616226674
 30
0.0
 11
7.246737129496699
 21
3.275160616226674
 31
0.0
  0
LINE
  5
65D
330
1F
100
AcDbEntity
  8
Object
100
AcDbLine
 10
7.246737129496699
 20
3.275160616226674
 30
0.0
 11
7.239737129496699
 21
3.273160616226673
 31
0.0
  0
LINE
  5
65E
330
1F
100
AcDbEntity
  8
Object
100
AcDbLine
 10
7.239737129496699
 20
3.152160616226674
 30
0.0
 11
7.233737129496699
 21
3.158160616226674
 31
0.0
  0
LINE
  5
65F
330
1F
100
AcDbEntity
  8
Object
100
AcDbLine
 10
7.233737129496699
 20
3.158160616226674
 30
0.0
 11
7.231737129496699
 21
3.165160616226674
 31
0.0
  0
LINE
  5
660
330
1F
100
AcDbEntity
  8
Object
100
AcDbLine
 10
7.231737129496699
 20
3.260160616226674
 30
0.0
 11
7.233737129496699
 21
3.268160616226674
 31
0.0
  0
LINE
  5
661
330
1F
100
AcDbEntity
  8
Object
100
AcDbLine
 10
7.233737129496699
 20
3.268160616226674
 30
0.0
 11
7.239737129496699
 21
3.273160616226673
 31
0.0
  0
LINE
  5
662
330
1F
100
AcDbEntity
  8
Object
100
AcDbLine
 10
7.239737129496699
 20
3.152160616226674
 30
0.0
 11
7.246737129496699
 21
3.150160616226674
 31
0.0
  0
LINE
  5
663
330
1F
100
AcDbEntity
  8
Object
100
AcDbLine
 10
7.231737129496699
 20
3.260160616226674
 30
0.0
 11
7.231737129496699
 21
3.165160616226674
 31
0.0
  0
LINE
  5
664
330
1F
100
AcDbEntity
  8
Object
100
AcDbLine
 10
6.924737129496699
 20
3.273160616226673
 30
0.0
 11
6.929737129496698
 21
3.268160616226674
 31
0.0
  0
LINE
  5
665
330
1F
100
AcDbEntity
  8
Object
100
AcDbLine
 10
6.929737129496698
 20
3.268160616226674
 30
0.0
 11
6.931737129496699
 21
3.260160616226674
 31
0.0
  0
LINE
  5
666
330
1F
100
AcDbEntity
  8
Object
100
AcDbLine
 10
6.931737129496699
 20
3.165160616226674
 30
0.0
 11
6.929737129496698
 21
3.158160616226674
 31
0.0
  0
LINE
  5
667
330
1F
100
AcDbEntity
  8
Object
100
AcDbLine
 10
6.929737129496698
 20
3.158160616226674
 30
0.0
 11
6.924737129496699
 21
3.152160616226674
 31
0.0
  0
LINE
  5
668
330
1F
100
AcDbEntity
  8
Object
100
AcDbLine
 10
6.924737129496699
 20
3.273160616226673
 30
0.0
 11
6.916737129496699
 21
3.275160616226674
 31
0.0
  0
LINE
  5
669
330
1F
100
AcDbEntity
  8
Object
100
AcDbLine
 10
6.931737129496699
 20
3.165160616226674
 30
0.0
 11
6.931737129496699
 21
3.260160616226674
 31
0.0
  0
LINE
  5
66A
330
1F
100
AcDbEntity
  8
Object
100
AcDbLine
 10
6.916737129496699
 20
3.150160616226674
 30
0.0
 11
6.924737129496699
 21
3.152160616226674
 31
0.0
  0
LINE
  5
66B
330
1F
100
AcDbEntity
  8
Object
100
AcDbLine
 10
6.716737129496698
 20
3.509160616226674
 30
0.0
 11
7.446737129496699
 21
3.509160616226674
 31
0.0
  0
LINE
  5
66C
330
1F
100
AcDbEntity
  8
Object
100
AcDbLine
 10
6.916737129496699
 20
3.275160616226674
 30
0.0
 11
6.716737129496698
 21
3.275160616226674
 31
0.0
  0
LINE
  5
66D
330
1F
100
AcDbEntity
  8
Object
100
AcDbLine
 10
6.708737129496698
 20
3.280160616226674
 30
0.0
 11
6.711737129496698
 21
3.277160616226674
 31
0.0
  0
LINE
  5
66E
330
1F
100
AcDbEntity
  8
Object
100
AcDbLine
 10
6.711737129496698
 20
3.277160616226674
 30
0.0
 11
6.716737129496698
 21
3.275160616226674
 31
0.0
  0
LINE
  5
66F
330
1F
100
AcDbEntity
  8
Object
100
AcDbLine
 10
6.916737129496699
 20
3.150160616226674
 30
0.0
 11
6.656737129496699
 21
3.150160616226674
 31
0.0
  0
LINE
  5
670
330
1F
100
AcDbEntity
  8
Object
100
AcDbLine
 10
6.656737129496699
 20
3.150160616226674
 30
0.0
 11
6.628737129496699
 21
3.156160616226673
 31
0.0
  0
LINE
  5
671
330
1F
100
AcDbEntity
  8
Object
100
AcDbLine
 10
6.628737129496699
 20
3.156160616226673
 30
0.0
 11
6.603737129496699
 21
3.172160616226674
 31
0.0
  0
LINE
  5
672
330
1F
100
AcDbEntity
  8
Object
100
AcDbLine
 10
6.603737129496699
 20
3.172160616226674
 30
0.0
 11
6.587737129496699
 21
3.197160616226674
 31
0.0
  0
LINE
  5
673
330
1F
100
AcDbEntity
  8
Object
100
AcDbLine
 10
6.581737129496699
 20
3.494160616226674
 30
0.0
 11
6.581737129496699
 21
3.225160616226673
 31
0.0
  0
LINE
  5
674
330
1F
100
AcDbEntity
  8
Object
100
AcDbLine
 10
6.708737129496698
 20
3.280160616226674
 30
0.0
 11
6.706737129496699
 21
3.285160616226674
 31
0.0
  0
LINE
  5
675
330
1F
100
AcDbEntity
  8
Object
100
AcDbLine
 10
6.581737129496699
 20
3.225160616226673
 30
0.0
 11
6.587737129496699
 21
3.197160616226674
 31
0.0
  0
LINE
  5
676
330
1F
100
AcDbEntity
  8
Object
100
AcDbLine
 10
6.706737129496699
 20
3.285160616226674
 30
0.0
 11
6.706737129496699
 21
3.499160616226673
 31
0.0
  0
LINE
  5
677
330
1F
100
AcDbEntity
  8
Object
100
AcDbLine
 10
6.706737129496699
 20
3.499160616226673
 30
0.0
 11
6.708737129496698
 21
3.504160616226673
 31
0.0
  0
LINE
  5
678
330
1F
100
AcDbEntity
  8
Object
100
AcDbLine
 10
6.581737129496699
 20
3.494160616226674
 30
0.0
 11
6.579737129496699
 21
3.502160616226674
 31
0.0
  0
LINE
  5
679
330
1F
100
AcDbEntity
  8
Object
100
AcDbLine
 10
6.579737129496699
 20
3.502160616226674
 30
0.0
 11
6.574737129496699
 21
3.507160616226673
 31
0.0
  0
LINE
  5
67A
330
1F
100
AcDbEntity
  8
Object
100
AcDbLine
 10
6.708737129496698
 20
3.504160616226673
 30
0.0
 11
6.711737129496698
 21
3.508160616226674
 31
0.0
  0
LINE
  5
67B
330
1F
100
AcDbEntity
  8
Object
100
AcDbLine
 10
6.711737129496698
 20
3.508160616226674
 30
0.0
 11
6.716737129496698
 21
3.509160616226674
 31
0.0
  0
LINE
  5
67C
330
1F
100
AcDbEntity
  8
Object
100
AcDbLine
 10
6.574737129496699
 20
3.507160616226673
 30
0.0
 11
6.566737129496699
 21
3.509160616226674
 31
0.0
  0
LINE
  5
67D
330
1F
100
AcDbEntity
  8
Object
100
AcDbLine
 10
6.566737129496699
 20
3.509160616226674
 30
0.0
 11
4.227737129496698
 21
3.509160616226674
 31
0.0
  0
LINE
  5
67E
330
1F
100
AcDbEntity
  8
Object
100
AcDbLine
 10
4.212737129496699
 20
3.494160616226674
 30
0.0
 11
4.214737129496699
 21
3.502160616226674
 31
0.0
  0
LINE
  5
67F
330
1F
100
AcDbEntity
  8
Object
100
AcDbLine
 10
4.087737129496699
 20
3.499160616226673
 30
0.0
 11
4.087737129496699
 21
3.285160616226674
 31
0.0
  0
LINE
  5
680
330
1F
100
AcDbEntity
  8
Object
100
AcDbLine
 10
4.212737129496699
 20
3.225160616226673
 30
0.0
 11
4.212737129496699
 21
3.494160616226674
 31
0.0
  0
LINE
  5
681
330
1F
100
AcDbEntity
  8
Object
100
AcDbLine
 10
4.214737129496699
 20
3.502160616226674
 30
0.0
 11
4.219737129496698
 21
3.507160616226673
 31
0.0
  0
LINE
  5
682
330
1F
100
AcDbEntity
  8
Object
100
AcDbLine
 10
4.086737129496698
 20
3.504160616226673
 30
0.0
 11
4.087737129496699
 21
3.499160616226673
 31
0.0
  0
LINE
  5
683
330
1F
100
AcDbEntity
  8
Object
100
AcDbLine
 10
4.212737129496699
 20
3.225160616226673
 30
0.0
 11
4.206737129496699
 21
3.197160616226674
 31
0.0
  0
LINE
  5
684
330
1F
100
AcDbEntity
  8
Object
100
AcDbLine
 10
4.206737129496699
 20
3.197160616226674
 30
0.0
 11
4.190737129496699
 21
3.172160616226674
 31
0.0
  0
LINE
  5
685
330
1F
100
AcDbEntity
  8
Object
100
AcDbLine
 10
4.190737129496699
 20
3.172160616226674
 30
0.0
 11
4.166737129496699
 21
3.156160616226673
 31
0.0
  0
LINE
  5
686
330
1F
100
AcDbEntity
  8
Object
100
AcDbLine
 10
4.166737129496699
 20
3.156160616226673
 30
0.0
 11
4.137737129496699
 21
3.150160616226674
 31
0.0
  0
LINE
  5
687
330
1F
100
AcDbEntity
  8
Object
100
AcDbLine
 10
4.087737129496699
 20
3.285160616226674
 30
0.0
 11
4.086737129496698
 21
3.280160616226674
 31
0.0
  0
LINE
  5
688
330
1F
100
AcDbEntity
  8
Object
100
AcDbLine
 10
4.082737129496699
 20
3.508160616226674
 30
0.0
 11
4.086737129496698
 21
3.504160616226673
 31
0.0
  0
LINE
  5
689
330
1F
100
AcDbEntity
  8
Object
100
AcDbLine
 10
4.219737129496698
 20
3.507160616226673
 30
0.0
 11
4.227737129496698
 21
3.509160616226674
 31
0.0
  0
LINE
  5
68A
330
1F
100
AcDbEntity
  8
Object
100
AcDbLine
 10
4.086737129496698
 20
3.280160616226674
 30
0.0
 11
4.082737129496699
 21
3.277160616226674
 31
0.0
  0
LINE
  5
68B
330
1F
100
AcDbEntity
  8
Object
100
AcDbLine
 10
4.077737129496698
 20
3.509160616226674
 30
0.0
 11
4.082737129496699
 21
3.508160616226674
 31
0.0
  0
LINE
  5
68C
330
1F
100
AcDbEntity
  8
Object
100
AcDbLine
 10
4.082737129496699
 20
3.277160616226674
 30
0.0
 11
4.077737129496698
 21
3.275160616226674
 31
0.0
  0
LINE
  5
68D
330
1F
100
AcDbEntity
  8
Object
100
AcDbLine
 10
4.077737129496698
 20
3.275160616226674
 30
0.0
 11
3.877737129496699
 21
3.275160616226674
 31
0.0
  0
LINE
  5
68E
330
1F
100
AcDbEntity
  8
Object
100
AcDbLine
 10
4.137737129496699
 20
3.150160616226674
 30
0.0
 11
3.877737129496699
 21
3.150160616226674
 31
0.0
  0
LINE
  5
68F
330
1F
100
AcDbEntity
  8
Object
100
AcDbLine
 10
3.877737129496699
 20
3.150160616226674
 30
0.0
 11
3.869737129496699
 21
3.152160616226674
 31
0.0
  0
LINE
  5
690
330
1F
100
AcDbEntity
  8
Object
100
AcDbLine
 10
3.869737129496699
 20
3.152160616226674
 30
0.0
 11
3.864737129496699
 21
3.158160616226674
 31
0.0
  0
LINE
  5
691
330
1F
100
AcDbEntity
  8
Object
100
AcDbLine
 10
3.864737129496699
 20
3.158160616226674
 30
0.0
 11
3.862737129496698
 21
3.165160616226674
 31
0.0
  0
LINE
  5
692
330
1F
100
AcDbEntity
  8
Object
100
AcDbLine
 10
3.862737129496698
 20
3.165160616226674
 30
0.0
 11
3.862737129496698
 21
3.260160616226674
 31
0.0
  0
LINE
  5
693
330
1F
100
AcDbEntity
  8
Object
100
AcDbLine
 10
3.862737129496698
 20
3.260160616226674
 30
0.0
 11
3.864737129496699
 21
3.268160616226674
 31
0.0
  0
LINE
  5
694
330
1F
100
AcDbEntity
  8
Object
100
AcDbLine
 10
3.864737129496699
 20
3.268160616226674
 30
0.0
 11
3.869737129496699
 21
3.273160616226673
 31
0.0
  0
LINE
  5
695
330
1F
100
AcDbEntity
  8
Object
100
AcDbLine
 10
3.869737129496699
 20
3.273160616226673
 30
0.0
 11
3.877737129496699
 21
3.275160616226674
 31
0.0
  0
LINE
  5
696
330
1F
100
AcDbEntity
  8
Object
100
AcDbLine
 10
3.554737129496698
 20
3.273160616226673
 30
0.0
 11
3.560737129496699
 21
3.268160616226674
 31
0.0
  0
LINE
  5
697
330
1F
100
AcDbEntity
  8
Object
100
AcDbLine
 10
3.560737129496699
 20
3.268160616226674
 30
0.0
 11
3.562737129496699
 21
3.260160616226674
 31
0.0
  0
LINE
  5
698
330
1F
100
AcDbEntity
  8
Object
100
AcDbLine
 10
3.562737129496699
 20
3.165160616226674
 30
0.0
 11
3.560737129496699
 21
3.158160616226674
 31
0.0
  0
LINE
  5
699
330
1F
100
AcDbEntity
  8
Object
100
AcDbLine
 10
3.560737129496699
 20
3.158160616226674
 30
0.0
 11
3.554737129496698
 21
3.152160616226674
 31
0.0
  0
LINE
  5
69A
330
1F
100
AcDbEntity
  8
Object
100
AcDbLine
 10
3.562737129496699
 20
3.165160616226674
 30
0.0
 11
3.562737129496699
 21
3.260160616226674
 31
0.0
  0
LINE
  5
69B
330
1F
100
AcDbEntity
  8
Object
100
AcDbLine
 10
3.554737129496698
 20
3.273160616226673
 30
0.0
 11
3.547737129496699
 21
3.275160616226674
 31
0.0
  0
LINE
  5
69C
330
1F
100
AcDbEntity
  8
Object
100
AcDbLine
 10
3.547737129496699
 20
3.150160616226674
 30
0.0
 11
3.554737129496698
 21
3.152160616226674
 31
0.0
  0
LINE
  5
69D
330
1F
100
AcDbEntity
  8
Object
100
AcDbLine
 10
3.547737129496699
 20
3.275160616226674
 30
0.0
 11
3.347737129496699
 21
3.275160616226674
 31
0.0
  0
LINE
  5
69E
330
1F
100
AcDbEntity
  8
Object
100
AcDbLine
 10
3.338737129496699
 20
3.504160616226673
 30
0.0
 11
3.337737129496699
 21
3.499160616226673
 31
0.0
  0
LINE
  5
69F
330
1F
100
AcDbEntity
  8
Object
100
AcDbLine
 10
3.337737129496699
 20
3.499160616226673
 30
0.0
 11
3.337737129496699
 21
3.285160616226674
 31
0.0
  0
LINE
  5
6A0
330
1F
100
AcDbEntity
  8
Object
100
AcDbLine
 10
3.337737129496699
 20
3.285160616226674
 30
0.0
 11
3.338737129496699
 21
3.280160616226674
 31
0.0
  0
LINE
  5
6A1
330
1F
100
AcDbEntity
  8
Object
100
AcDbLine
 10
3.212737129496699
 20
3.285160616226674
 30
0.0
 11
3.212737129496699
 21
3.499160616226673
 31
0.0
  0
LINE
  5
6A2
330
1F
100
AcDbEntity
  8
Object
100
AcDbLine
 10
3.212737129496699
 20
3.499160616226673
 30
0.0
 11
3.211737129496698
 21
3.504160616226673
 31
0.0
  0
LINE
  5
6A3
330
1F
100
AcDbEntity
  8
Object
100
AcDbLine
 10
3.338737129496699
 20
3.504160616226673
 30
0.0
 11
3.342737129496699
 21
3.508160616226674
 31
0.0
  0
LINE
  5
6A4
330
1F
100
AcDbEntity
  8
Object
100
AcDbLine
 10
3.342737129496699
 20
3.277160616226674
 30
0.0
 11
3.338737129496699
 21
3.280160616226674
 31
0.0
  0
LINE
  5
6A5
330
1F
100
AcDbEntity
  8
Object
100
AcDbLine
 10
3.212737129496699
 20
3.285160616226674
 30
0.0
 11
3.211737129496698
 21
3.280160616226674
 31
0.0
  0
LINE
  5
6A6
330
1F
100
AcDbEntity
  8
Object
100
AcDbLine
 10
3.207737129496699
 20
3.508160616226674
 30
0.0
 11
3.211737129496698
 21
3.504160616226673
 31
0.0
  0
LINE
  5
6A7
330
1F
100
AcDbEntity
  8
Object
100
AcDbLine
 10
3.211737129496698
 20
3.280160616226674
 30
0.0
 11
3.207737129496699
 21
3.277160616226674
 31
0.0
  0
LINE
  5
6A8
330
1F
100
AcDbEntity
  8
Object
100
AcDbLine
 10
3.342737129496699
 20
3.508160616226674
 30
0.0
 11
3.347737129496699
 21
3.509160616226674
 31
0.0
  0
LINE
  5
6A9
330
1F
100
AcDbEntity
  8
Object
100
AcDbLine
 10
3.202737129496698
 20
3.509160616226674
 30
0.0
 11
3.207737129496699
 21
3.508160616226674
 31
0.0
  0
LINE
  5
6AA
330
1F
100
AcDbEntity
  8
Object
100
AcDbLine
 10
3.207737129496699
 20
3.277160616226674
 30
0.0
 11
3.202737129496698
 21
3.275160616226674
 31
0.0
  0
LINE
  5
6AB
330
1F
100
AcDbEntity
  8
Object
100
AcDbLine
 10
3.347737129496699
 20
3.275160616226674
 30
0.0
 11
3.342737129496699
 21
3.277160616226674
 31
0.0
  0
LINE
  5
6AC
330
1F
100
AcDbEntity
  8
Object
100
AcDbLine
 10
3.002737129496699
 20
3.150160616226674
 30
0.0
 11
3.547737129496699
 21
3.150160616226674
 31
0.0
  0
LINE
  5
6AD
330
1F
100
AcDbEntity
  8
Object
100
AcDbLine
 10
3.202737129496698
 20
3.275160616226674
 30
0.0
 11
3.002737129496699
 21
3.275160616226674
 31
0.0
  0
LINE
  5
6AE
330
1F
100
AcDbEntity
  8
Object
100
AcDbLine
 10
3.002737129496699
 20
3.150160616226674
 30
0.0
 11
2.995737129496699
 21
3.152160616226674
 31
0.0
  0
LINE
  5
6AF
330
1F
100
AcDbEntity
  8
Object
100
AcDbLine
 10
2.995737129496699
 20
3.152160616226674
 30
0.0
 11
2.989737129496699
 21
3.158160616226674
 31
0.0
  0
LINE
  5
6B0
330
1F
100
AcDbEntity
  8
Object
100
AcDbLine
 10
2.989737129496699
 20
3.158160616226674
 30
0.0
 11
2.987737129496698
 21
3.165160616226674
 31
0.0
  0
LINE
  5
6B1
330
1F
100
AcDbEntity
  8
Object
100
AcDbLine
 10
2.987737129496698
 20
3.165160616226674
 30
0.0
 11
2.987737129496698
 21
3.260160616226674
 31
0.0
  0
LINE
  5
6B2
330
1F
100
AcDbEntity
  8
Object
100
AcDbLine
 10
2.987737129496698
 20
3.260160616226674
 30
0.0
 11
2.989737129496699
 21
3.268160616226674
 31
0.0
  0
LINE
  5
6B3
330
1F
100
AcDbEntity
  8
Object
100
AcDbLine
 10
2.989737129496699
 20
3.268160616226674
 30
0.0
 11
2.995737129496699
 21
3.273160616226673
 31
0.0
  0
LINE
  5
6B4
330
1F
100
AcDbEntity
  8
Object
100
AcDbLine
 10
2.995737129496699
 20
3.273160616226673
 30
0.0
 11
3.002737129496699
 21
3.275160616226674
 31
0.0
  0
LINE
  5
6B5
330
1F
100
AcDbEntity
  8
Object
100
AcDbLine
 10
3.347737129496699
 20
3.509160616226674
 30
0.0
 11
4.077737129496698
 21
3.509160616226674
 31
0.0
  0
LINE
  5
6B6
330
1F
100
AcDbEntity
  8
Object
100
AcDbLine
 10
7.986737129496699
 20
3.634160616226674
 30
0.0
 11
2.807737129496699
 21
3.634160616226674
 31
0.0
  0
LINE
  5
6B7
330
1F
100
AcDbEntity
  8
Object
100
AcDbLine
 10
3.202737129496698
 20
3.509160616226674
 30
0.0
 11
2.807737129496699
 21
3.509160616226674
 31
0.0
  0
LINE
  5
6B8
330
1F
100
AcDbEntity
  8
Object
100
AcDbLine
 10
2.807737129496699
 20
3.509160616226674
 30
0.0
 11
2.726737129496699
 21
3.516160616226674
 31
0.0
  0
LINE
  5
6B9
330
1F
100
AcDbEntity
  8
Object
100
AcDbLine
 10
2.807737129496699
 20
3.634160616226674
 30
0.0
 11
2.739737129496699
 21
3.641160616226674
 31
0.0
  0
LINE
  5
6BA
330
1F
100
AcDbEntity
  8
Object
100
AcDbLine
 10
2.739737129496699
 20
3.641160616226674
 30
0.0
 11
2.673737129496698
 21
3.660160616226674
 31
0.0
  0
LINE
  5
6BB
330
1F
100
AcDbEntity
  8
Object
100
AcDbLine
 10
2.647737129496698
 20
3.536160616226673
 30
0.0
 11
2.726737129496699
 21
3.516160616226674
 31
0.0
  0
LINE
  5
6BC
330
1F
100
AcDbEntity
  8
Object
100
AcDbLine
 10
2.573737129496699
 20
6.833160616226674
 30
0.0
 11
2.579737129496699
 21
6.810160616226673
 31
0.0
  0
LINE
  5
6BD
330
1F
100
AcDbEntity
  8
Object
100
AcDbLine
 10
2.579737129496699
 20
6.810160616226673
 30
0.0
 11
2.573737129496699
 21
6.787160616226674
 31
0.0
  0
LINE
  5
6BE
330
1F
100
AcDbEntity
  8
Object
100
AcDbLine
 10
2.572737129496699
 20
3.569160616226674
 30
0.0
 11
2.647737129496698
 21
3.536160616226673
 31
0.0
  0
LINE
  5
6BF
330
1F
100
AcDbEntity
  8
Object
100
AcDbLine
 10
2.673737129496698
 20
3.660160616226674
 30
0.0
 11
2.612737129496698
 21
3.691160616226674
 31
0.0
  0
LINE
  5
6C0
330
1F
100
AcDbEntity
  8
Object
100
AcDbLine
 10
2.579737129496699
 20
7.034160616226674
 30
0.0
 11
2.574737129496698
 21
7.009160616226674
 31
0.0
  0
LINE
  5
6C1
330
1F
100
AcDbEntity
  8
Object
100
AcDbLine
 10
2.574737129496698
 20
7.009160616226674
 30
0.0
 11
2.560737129496699
 21
6.988160616226673
 31
0.0
  0
LINE
  5
6C2
330
1F
100
AcDbEntity
  8
Object
100
AcDbLine
 10
2.573737129496699
 20
6.833160616226674
 30
0.0
 11
2.557737129496699
 21
6.849160616226674
 31
0.0
  0
LINE
  5
6C3
330
1F
100
AcDbEntity
  8
Object
100
AcDbLine
 10
2.557737129496699
 20
6.770160616226673
 30
0.0
 11
2.573737129496699
 21
6.787160616226674
 31
0.0
  0
LINE
  5
6C4
330
1F
100
AcDbEntity
  8
Object
100
AcDbLine
 10
2.539737129496699
 20
6.974160616226674
 30
0.0
 11
2.560737129496699
 21
6.988160616226673
 31
0.0
  0
LINE
  5
6C5
330
1F
100
AcDbEntity
  8
Object
100
AcDbLine
 10
2.534737129496699
 20
6.764160616226674
 30
0.0
 11
2.557737129496699
 21
6.770160616226673
 31
0.0
  0
LINE
  5
6C6
330
1F
100
AcDbEntity
  8
Object
100
AcDbLine
 10
2.514737129496699
 20
6.969160616226674
 30
0.0
 11
2.539737129496699
 21
6.974160616226674
 31
0.0
  0
LINE
  5
6C7
330
1F
100
AcDbEntity
  8
Object
100
AcDbLine
 10
2.612737129496698
 20
3.691160616226674
 30
0.0
 11
2.558737129496699
 21
3.732160616226674
 31
0.0
  0
LINE
  5
6C8
330
1F
100
AcDbEntity
  8
Object
100
AcDbLine
 10
2.504737129496699
 20
3.614160616226674
 30
0.0
 11
2.572737129496699
 21
3.569160616226674
 31
0.0
  0
LINE
  5
6C9
330
1F
100
AcDbEntity
  8
Object
100
AcDbLine
 10
2.539737129496699
 20
6.859160616226674
 30
0.0
 11
2.499737129496699
 21
6.859160616226674
 31
0.0
  0
LINE
  5
6CA
330
1F
100
AcDbEntity
  8
Object
100
AcDbLine
 10
2.499737129496699
 20
6.859160616226674
 30
0.0
 11
2.496737129496699
 21
6.839160616226673
 31
0.0
  0
LINE
  5
6CB
330
1F
100
AcDbEntity
  8
Object
100
AcDbLine
 10
2.557737129496699
 20
6.849160616226674
 30
0.0
 11
2.539737129496699
 21
6.859160616226674
 31
0.0
  0
LINE
  5
6CC
330
1F
100
AcDbEntity
  8
Object
100
AcDbLine
 10
2.579737129496699
 20
7.287160616226674
 30
0.0
 11
2.573737129496699
 21
7.352160616226674
 31
0.0
  0
LINE
  5
6CD
330
1F
100
AcDbEntity
  8
Object
100
AcDbLine
 10
2.454737129496699
 20
7.287160616226674
 30
0.0
 11
2.454737129496699
 21
7.114160616226674
 31
0.0
  0
LINE
  5
6CE
330
1F
100
AcDbEntity
  8
Object
100
AcDbLine
 10
2.579737129496699
 20
7.034160616226674
 30
0.0
 11
2.579737129496699
 21
7.287160616226674
 31
0.0
  0
LINE
  5
6CF
330
1F
100
AcDbEntity
  8
Object
100
AcDbLine
 10
2.454737129496699
 20
7.114160616226674
 30
0.0
 11
2.452737129496698
 21
7.104160616226674
 31
0.0
  0
LINE
  5
6D0
330
1F
100
AcDbEntity
  8
Object
100
AcDbLine
 10
2.448737129496699
 20
7.335160616226674
 30
0.0
 11
2.454737129496699
 21
7.287160616226674
 31
0.0
  0
LINE
  5
6D1
330
1F
100
AcDbEntity
  8
Object
100
AcDbLine
 10
2.573737129496699
 20
7.352160616226674
 30
0.0
 11
2.553737129496699
 21
7.414160616226673
 31
0.0
  0
LINE
  5
6D2
330
1F
100
AcDbEntity
  8
Object
100
AcDbLine
 10
2.452737129496698
 20
7.104160616226674
 30
0.0
 11
2.444737129496699
 21
7.097160616226673
 31
0.0
  0
LINE
  5
6D3
330
1F
100
AcDbEntity
  8
Object
100
AcDbLine
 10
2.444737129496699
 20
3.670160616226674
 30
0.0
 11
2.504737129496699
 21
3.614160616226674
 31
0.0
  0
LINE
  5
6D4
330
1F
100
AcDbEntity
  8
Object
100
AcDbLine
 10
2.558737129496699
 20
3.732160616226674
 30
0.0
 11
2.513737129496698
 21
3.783160616226674
 31
0.0
  0
LINE
  5
6D5
330
1F
100
AcDbEntity
  8
Object
100
AcDbLine
 10
2.444737129496699
 20
7.097160616226673
 30
0.0
 11
2.434737129496699
 21
7.094160616226674
 31
0.0
  0
LINE
  5
6D6
330
1F
100
AcDbEntity
  8
Object
100
AcDbLine
 10
2.553737129496699
 20
7.414160616226673
 30
0.0
 11
2.520737129496699
 21
7.471160616226674
 31
0.0
  0
LINE
  5
6D7
330
1F
100
AcDbEntity
  8
Object
100
AcDbLine
 10
2.448737129496699
 20
7.335160616226674
 30
0.0
 11
2.430737129496699
 21
7.381160616226674
 31
0.0
  0
LINE
  5
6D8
330
1F
100
AcDbEntity
  8
Object
100
AcDbLine
 10
2.430737129496699
 20
7.381160616226674
 30
0.0
 11
2.401737129496699
 21
7.420160616226674
 31
0.0
  0
LINE
  5
6D9
330
1F
100
AcDbEntity
  8
Object
100
AcDbLine
 10
2.520737129496699
 20
7.471160616226674
 30
0.0
 11
2.477737129496698
 21
7.520160616226673
 31
0.0
  0
LINE
  5
6DA
330
1F
100
AcDbEntity
  8
Object
100
AcDbLine
 10
2.513737129496698
 20
3.783160616226674
 30
0.0
 11
2.478737129496699
 21
3.842160616226674
 31
0.0
  0
LINE
  5
6DB
330
1F
100
AcDbEntity
  8
Object
100
AcDbLine
 10
2.395737129496699
 20
3.735160616226674
 30
0.0
 11
2.444737129496699
 21
3.670160616226674
 31
0.0
  0
LINE
  5
6DC
330
1F
100
AcDbEntity
  8
Object
100
AcDbLine
 10
2.477737129496698
 20
7.520160616226673
 30
0.0
 11
2.424737129496699
 21
7.559160616226674
 31
0.0
  0
LINE
  5
6DD
330
1F
100
AcDbEntity
  8
Object
100
AcDbLine
 10
2.362737129496698
 20
7.451160616226673
 30
0.0
 11
2.401737129496699
 21
7.420160616226674
 31
0.0
  0
LINE
  5
6DE
330
1F
100
AcDbEntity
  8
Object
100
AcDbLine
 10
2.357737129496699
 20
3.807160616226674
 30
0.0
 11
2.395737129496699
 21
3.735160616226674
 31
0.0
  0
LINE
  5
6DF
330
1F
100
AcDbEntity
  8
Object
100
AcDbLine
 10
2.478737129496699
 20
3.842160616226674
 30
0.0
 11
2.454737129496699
 21
3.906160616226673
 31
0.0
  0
LINE
  5
6E0
330
1F
100
AcDbEntity
  8
Object
100
AcDbLine
 10
2.353737129496699
 20
7.454160616226674
 30
0.0
 11
2.362737129496698
 21
7.451160616226673
 31
0.0
  0
LINE
  5
6E1
330
1F
100
AcDbEntity
  8
Object
100
AcDbLine
 10
2.424737129496699
 20
7.559160616226674
 30
0.0
 11
2.365737129496698
 21
7.587160616226674
 31
0.0
  0
LINE
  5
6E2
330
1F
100
AcDbEntity
  8
Object
100
AcDbLine
 10
2.342737129496699
 20
7.453160616226674
 30
0.0
 11
2.353737129496699
 21
7.454160616226674
 31
0.0
  0
LINE
  5
6E3
330
1F
100
AcDbEntity
  8
Object
100
AcDbLine
 10
2.454737129496699
 20
3.906160616226673
 30
0.0
 11
2.443737129496699
 21
3.974160616226674
 31
0.0
  0
LINE
  5
6E4
330
1F
100
AcDbEntity
  8
Object
100
AcDbLine
 10
2.331737129496699
 20
3.884160616226674
 30
0.0
 11
2.357737129496699
 21
3.807160616226674
 31
0.0
  0
LINE
  5
6E5
330
1F
100
AcDbEntity
  8
Object
100
AcDbLine
 10
2.365737129496698
 20
7.587160616226674
 30
0.0
 11
2.326737129496699
 21
7.594160616226674
 31
0.0
  0
LINE
  5
6E6
330
1F
100
AcDbEntity
  8
Object
100
AcDbLine
 10
2.318737129496699
 20
3.965160616226674
 30
0.0
 11
2.331737129496699
 21
3.884160616226674
 31
0.0
  0
LINE
  5
6E7
330
1F
100
AcDbEntity
  8
Object
100
AcDbLine
 10
2.324737129496698
 20
7.287160616226674
 30
0.0
 11
2.320737129496698
 21
7.263160616226674
 31
0.0
  0
LINE
  5
6E8
330
1F
100
AcDbEntity
  8
Object
100
AcDbLine
 10
2.320737129496698
 20
7.263160616226674
 30
0.0
 11
2.306737129496699
 21
7.243160616226674
 31
0.0
  0
LINE
  5
6E9
330
1F
100
AcDbEntity
  8
Object
100
AcDbLine
 10
2.326737129496699
 20
7.594160616226674
 30
0.0
 11
2.287737129496699
 21
7.588160616226674
 31
0.0
  0
LINE
  5
6EA
330
1F
100
AcDbEntity
  8
Object
100
AcDbLine
 10
2.333737129496698
 20
7.448160616226674
 30
0.0
 11
2.342737129496699
 21
7.453160616226674
 31
0.0
  0
LINE
  5
6EB
330
1F
100
AcDbEntity
  8
Object
100
AcDbLine
 10
2.286737129496699
 20
7.229160616226674
 30
0.0
 11
2.306737129496699
 21
7.243160616226674
 31
0.0
  0
LINE
  5
6EC
330
1F
100
AcDbEntity
  8
Object
100
AcDbLine
 10
2.270737129496699
 20
6.764160616226674
 30
0.0
 11
2.534737129496699
 21
6.764160616226674
 31
0.0
  0
LINE
  5
6ED
330
1F
100
AcDbEntity
  8
Object
100
AcDbLine
 10
2.262737129496699
 20
7.224160616226674
 30
0.0
 11
2.286737129496699
 21
7.229160616226674
 31
0.0
  0
LINE
  5
6EE
330
1F
100
AcDbEntity
  8
Object
100
AcDbLine
 10
2.262737129496699
 20
6.763160616226674
 30
0.0
 11
2.270737129496699
 21
6.764160616226674
 31
0.0
  0
LINE
  5
6EF
330
1F
100
AcDbEntity
  8
Object
100
AcDbLine
 10
2.496737129496699
 20
6.839160616226673
 30
0.0
 11
2.261737129496699
 21
6.839160616226673
 31
0.0
  0
LINE
  5
6F0
330
1F
100
AcDbEntity
  8
Object
100
AcDbLine
 10
2.255737129496699
 20
6.969160616226674
 30
0.0
 11
2.514737129496699
 21
6.969160616226674
 31
0.0
  0
LINE
  5
6F1
330
1F
100
AcDbEntity
  8
Object
100
AcDbLine
 10
2.287737129496699
 20
7.588160616226674
 30
0.0
 11
2.252737129496699
 21
7.571160616226674
 31
0.0
  0
LINE
  5
6F2
330
1F
100
AcDbEntity
  8
Object
100
AcDbLine
 10
2.261737129496699
 20
6.839160616226673
 30
0.0
 11
2.252737129496699
 21
6.842160616226673
 31
0.0
  0
LINE
  5
6F3
330
1F
100
AcDbEntity
  8
Object
100
AcDbLine
 10
2.255737129496699
 20
6.758160616226674
 30
0.0
 11
2.262737129496699
 21
6.763160616226674
 31
0.0
  0
LINE
  5
6F4
330
1F
100
AcDbEntity
  8
Object
100
AcDbLine
 10
2.443737129496699
 20
3.974160616226674
 30
0.0
 11
2.250737129496698
 21
6.743160616226674
 31
0.0
  0
LINE
  5
6F5
330
1F
100
AcDbEntity
  8
Object
100
AcDbLine
 10
2.251737129496699
 20
6.751160616226674
 30
0.0
 11
2.255737129496699
 21
6.758160616226674
 31
0.0
  0
LINE
  5
6F6
330
1F
100
AcDbEntity
  8
Object
100
AcDbLine
 10
2.252737129496699
 20
6.842160616226673
 30
0.0
 11
2.245737129496699
 21
6.848160616226674
 31
0.0
  0
LINE
  5
6F7
330
1F
100
AcDbEntity
  8
Object
100
AcDbLine
 10
2.245737129496699
 20
6.848160616226674
 30
0.0
 11
2.242737129496699
 21
6.858160616226673
 31
0.0
  0
LINE
  5
6F8
330
1F
100
AcDbEntity
  8
Object
100
AcDbLine
 10
2.250737129496698
 20
6.743160616226674
 30
0.0
 11
2.251737129496699
 21
6.751160616226674
 31
0.0
  0
LINE
  5
6F9
330
1F
100
AcDbEntity
  8
Object
100
AcDbLine
 10
2.238737129496699
 20
7.229160616226674
 30
0.0
 11
2.262737129496699
 21
7.224160616226674
 31
0.0
  0
LINE
  5
6FA
330
1F
100
AcDbEntity
  8
Object
100
AcDbLine
 10
2.327737129496698
 20
7.440160616226674
 30
0.0
 11
2.333737129496698
 21
7.448160616226674
 31
0.0
  0
LINE
  5
6FB
330
1F
100
AcDbEntity
  8
Object
100
AcDbLine
 10
2.252737129496699
 20
7.571160616226674
 30
0.0
 11
2.224737129496698
 21
7.543160616226674
 31
0.0
  0
LINE
  5
6FC
330
1F
100
AcDbEntity
  8
Object
100
AcDbLine
 10
2.218737129496698
 20
7.243160616226674
 30
0.0
 11
2.238737129496699
 21
7.229160616226674
 31
0.0
  0
LINE
  5
6FD
330
1F
100
AcDbEntity
  8
Object
100
AcDbLine
 10
2.224737129496698
 20
7.543160616226674
 30
0.0
 11
2.206737129496699
 21
7.508160616226674
 31
0.0
  0
LINE
  5
6FE
330
1F
100
AcDbEntity
  8
Object
100
AcDbLine
 10
2.204737129496699
 20
7.263160616226674
 30
0.0
 11
2.218737129496698
 21
7.243160616226674
 31
0.0
  0
LINE
  5
6FF
330
1F
100
AcDbEntity
  8
Object
100
AcDbLine
 10
2.206737129496699
 20
7.508160616226674
 30
0.0
 11
2.199737129496698
 21
7.469160616226674
 31
0.0
  0
LINE
  5
700
330
1F
100
AcDbEntity
  8
Object
100
AcDbLine
 10
2.324737129496698
 20
7.430160616226674
 30
0.0
 11
2.327737129496698
 21
7.440160616226674
 31
0.0
  0
LINE
  5
701
330
1F
100
AcDbEntity
  8
Object
100
AcDbLine
 10
2.199737129496698
 20
7.287160616226674
 30
0.0
 11
2.204737129496699
 21
7.263160616226674
 31
0.0
  0
LINE
  5
702
330
1F
100
AcDbEntity
  8
Object
100
AcDbLine
 10
2.324737129496698
 20
7.287160616226674
 30
0.0
 11
2.324737129496698
 21
7.430160616226674
 31
0.0
  0
LINE
  5
703
330
1F
100
AcDbEntity
  8
Object
100
AcDbLine
 10
2.199737129496698
 20
7.469160616226674
 30
0.0
 11
2.199737129496698
 21
7.287160616226674
 31
0.0
  0
LINE
  5
704
330
1F
100
AcDbEntity
  8
Object
100
AcDbLine
 10
2.434737129496699
 20
7.094160616226674
 30
0.0
 11
2.169737129496699
 21
7.094160616226674
 31
0.0
  0
LINE
  5
705
330
1F
100
AcDbEntity
  8
Object
100
AcDbLine
 10
2.255737129496699
 20
6.969160616226674
 30
0.0
 11
2.247737129496698
 21
6.968160616226674
 31
0.0
  0
LINE
  5
706
330
1F
100
AcDbEntity
  8
Object
100
AcDbLine
 10
2.247737129496698
 20
6.968160616226674
 30
0.0
 11
2.241737129496699
 21
6.963160616226674
 31
0.0
  0
LINE
  5
707
330
1F
100
AcDbEntity
  8
Object
100
AcDbLine
 10
2.143737129496699
 20
7.089160616226673
 30
0.0
 11
2.122737129496699
 21
7.074160616226674
 31
0.0
  0
LINE
  5
708
330
1F
100
AcDbEntity
  8
Object
100
AcDbLine
 10
2.105737129496699
 20
7.025160616226674
 30
0.0
 11
2.108737129496699
 21
7.051160616226674
 31
0.0
  0
LINE
  5
709
330
1F
100
AcDbEntity
  8
Object
100
AcDbLine
 10
2.108737129496699
 20
7.051160616226674
 30
0.0
 11
2.122737129496699
 21
7.074160616226674
 31
0.0
  0
LINE
  5
70A
330
1F
100
AcDbEntity
  8
Object
100
AcDbLine
 10
2.169737129496699
 20
7.094160616226674
 30
0.0
 11
2.143737129496699
 21
7.089160616226673
 31
0.0
  0
LINE
  5
70B
330
1F
100
AcDbEntity
  8
Object
100
AcDbLine
 10
2.241737129496699
 20
6.963160616226674
 30
0.0
 11
2.236737129496699
 21
6.956160616226673
 31
0.0
  0
LINE
  5
70C
330
1F
100
AcDbEntity
  8
Object
100
AcDbLine
 10
2.236737129496699
 20
6.956160616226673
 30
0.0
 11
2.235737129496699
 21
6.948160616226673
 31
0.0
  0
LINE
  5
70D
330
1F
100
AcDbEntity
  8
Object
100
AcDbLine
 10
2.235737129496699
 20
6.948160616226673
 30
0.0
 11
2.242737129496699
 21
6.858160616226673
 31
0.0
  0
LINE
  5
70E
330
1F
100
AcDbEntity
  8
Object
100
AcDbLine
 10
2.105737129496699
 20
7.025160616226674
 30
0.0
 11
2.318737129496699
 21
3.965160616226674
 31
0.0
  0
LINE
  5
70F
330
1F
100
AcDbEntity
  8
Object
100
AcDbLine
 10
4.077737129496698
 20
3.275160616226674
 30
0.0
 11
3.877737129496699
 21
3.275160616226674
 31
0.0
  0
LINE
  5
710
330
1F
100
AcDbEntity
  8
Object
100
AcDbLine
 10
4.087737129496699
 20
3.499160616226673
 30
0.0
 11
4.086737129496698
 21
3.504160616226673
 31
0.0
  0
LINE
  5
711
330
1F
100
AcDbEntity
  8
Object
100
AcDbLine
 10
4.086737129496698
 20
3.504160616226673
 30
0.0
 11
4.082737129496699
 21
3.508160616226674
 31
0.0
  0
LINE
  5
712
330
1F
100
AcDbEntity
  8
Object
100
AcDbLine
 10
4.082737129496699
 20
3.508160616226674
 30
0.0
 11
4.077737129496698
 21
3.509160616226674
 31
0.0
  0
LINE
  5
713
330
1F
100
AcDbEntity
  8
Object
100
AcDbLine
 10
4.212737129496699
 20
3.225160616226673
 30
0.0
 11
4.212737129496699
 21
3.494160616226674
 31
0.0
  0
LINE
  5
714
330
1F
100
AcDbEntity
  8
Object
100
AcDbLine
 10
6.931737129496699
 20
3.165160616226674
 30
0.0
 11
6.929737129496698
 21
3.158160616226674
 31
0.0
  0
LINE
  5
715
330
1F
100
AcDbEntity
  8
Object
100
AcDbLine
 10
6.929737129496698
 20
3.158160616226674
 30
0.0
 11
6.924737129496699
 21
3.152160616226674
 31
0.0
  0
LINE
  5
716
330
1F
100
AcDbEntity
  8
Object
100
AcDbLine
 10
6.924737129496699
 20
3.152160616226674
 30
0.0
 11
6.916737129496699
 21
3.150160616226674
 31
0.0
  0
LINE
  5
717
330
1F
100
AcDbEntity
  8
Object
100
AcDbLine
 10
7.246737129496699
 20
3.275160616226674
 30
0.0
 11
7.239737129496699
 21
3.273160616226673
 31
0.0
  0
LINE
  5
718
330
1F
100
AcDbEntity
  8
Object
100
AcDbLine
 10
7.239737129496699
 20
3.273160616226673
 30
0.0
 11
7.233737129496699
 21
3.268160616226674
 31
0.0
  0
LINE
  5
719
330
1F
100
AcDbEntity
  8
Object
100
AcDbLine
 10
7.233737129496699
 20
3.268160616226674
 30
0.0
 11
7.231737129496699
 21
3.260160616226674
 31
0.0
  0
LINE
  5
71A
330
1F
100
AcDbEntity
  8
Object
100
AcDbLine
 10
8.279737129496698
 20
6.969160616226674
 30
0.0
 11
8.538737129496698
 21
6.969160616226674
 31
0.0
  0
LINE
  5
71B
330
1F
100
AcDbEntity
  8
Object
100
AcDbLine
 10
8.3507371294967
 20
3.974160616226674
 30
0.0
 11
8.339737129496699
 21
3.906160616226673
 31
0.0
  0
LINE
  5
71C
330
1F
100
AcDbEntity
  8
Object
100
AcDbLine
 10
8.339737129496699
 20
3.906160616226673
 30
0.0
 11
8.315737129496699
 21
3.842160616226674
 31
0.0
  0
LINE
  5
71D
330
1F
100
AcDbEntity
  8
Object
100
AcDbLine
 10
8.315737129496699
 20
3.842160616226674
 30
0.0
 11
8.280737129496699
 21
3.783160616226674
 31
0.0
  0
LINE
  5
71E
330
1F
100
AcDbEntity
  8
Object
100
AcDbLine
 10
8.280737129496699
 20
3.783160616226674
 30
0.0
 11
8.235737129496699
 21
3.732160616226674
 31
0.0
  0
LINE
  5
71F
330
1F
100
AcDbEntity
  8
Object
100
AcDbLine
 10
8.235737129496699
 20
3.732160616226674
 30
0.0
 11
8.181737129496699
 21
3.691160616226674
 31
0.0
  0
LINE
  5
720
330
1F
100
AcDbEntity
  8
Object
100
AcDbLine
 10
8.181737129496699
 20
3.691160616226674
 30
0.0
 11
8.120737129496699
 21
3.660160616226674
 31
0.0
  0
LINE
  5
721
330
1F
100
AcDbEntity
  8
Object
100
AcDbLine
 10
8.120737129496699
 20
3.660160616226674
 30
0.0
 11
8.054737129496698
 21
3.641160616226674
 31
0.0
  0
LINE
  5
722
330
1F
100
AcDbEntity
  8
Object
100
AcDbLine
 10
8.054737129496698
 20
3.641160616226674
 30
0.0
 11
7.986737129496699
 21
3.634160616226674
 31
0.0
  0
LINE
  5
723
330
1F
100
AcDbEntity
  8
Object
100
AcDbLine
 10
2.199737129496698
 20
7.469160616226674
 30
0.0
 11
2.199737129496698
 21
7.287160616226674
 31
0.0
  0
LINE
  5
724
330
1F
100
AcDbEntity
  8
Object
100
AcDbLine
 10
2.324737129496698
 20
7.287160616226674
 30
0.0
 11
2.324737129496698
 21
7.430160616226674
 31
0.0
  0
LINE
  5
725
330
1F
100
AcDbEntity
  8
Object
100
AcDbLine
 10
3.002737129496699
 20
3.150160616226674
 30
0.0
 11
2.995737129496699
 21
3.152160616226674
 31
0.0
  0
LINE
  5
726
330
1F
100
AcDbEntity
  8
Object
100
AcDbLine
 10
2.995737129496699
 20
3.152160616226674
 30
0.0
 11
2.989737129496699
 21
3.158160616226674
 31
0.0
  0
LINE
  5
727
330
1F
100
AcDbEntity
  8
Object
100
AcDbLine
 10
2.989737129496699
 20
3.158160616226674
 30
0.0
 11
2.987737129496698
 21
3.165160616226674
 31
0.0
  0
LINE
  5
728
330
1F
100
AcDbEntity
  8
Object
100
AcDbLine
 10
3.862737129496698
 20
3.260160616226674
 30
0.0
 11
3.862737129496698
 21
3.165160616226674
 31
0.0
  0
LINE
  5
729
330
1F
100
AcDbEntity
  8
Object
100
AcDbLine
 10
4.212737129496699
 20
3.225160616226673
 30
0.0
 11
4.206737129496699
 21
3.197160616226674
 31
0.0
  0
LINE
  5
72A
330
1F
100
AcDbEntity
  8
Object
100
AcDbLine
 10
4.206737129496699
 20
3.197160616226674
 30
0.0
 11
4.190737129496699
 21
3.172160616226674
 31
0.0
  0
LINE
  5
72B
330
1F
100
AcDbEntity
  8
Object
100
AcDbLine
 10
4.190737129496699
 20
3.172160616226674
 30
0.0
 11
4.166737129496699
 21
3.156160616226673
 31
0.0
  0
LINE
  5
72C
330
1F
100
AcDbEntity
  8
Object
100
AcDbLine
 10
4.166737129496699
 20
3.156160616226673
 30
0.0
 11
4.137737129496699
 21
3.150160616226674
 31
0.0
  0
LINE
  5
72D
330
1F
100
AcDbEntity
  8
Object
100
AcDbLine
 10
6.716737129496698
 20
3.509160616226674
 30
0.0
 11
7.446737129496699
 21
3.509160616226674
 31
0.0
  0
LINE
  5
72E
330
1F
100
AcDbEntity
  8
Object
100
AcDbLine
 10
7.591737129496698
 20
3.509160616226674
 30
0.0
 11
7.986737129496699
 21
3.509160616226674
 31
0.0
  0
LINE
  5
72F
330
1F
100
AcDbEntity
  8
Object
100
AcDbLine
 10
8.594737129496699
 20
7.469160616226674
 30
0.0
 11
8.588737129496699
 21
7.508160616226674
 31
0.0
  0
LINE
  5
730
330
1F
100
AcDbEntity
  8
Object
100
AcDbLine
 10
8.588737129496699
 20
7.508160616226674
 30
0.0
 11
8.569737129496699
 21
7.543160616226674
 31
0.0
  0
LINE
  5
731
330
1F
100
AcDbEntity
  8
Object
100
AcDbLine
 10
8.569737129496699
 20
7.543160616226674
 30
0.0
 11
8.541737129496699
 21
7.571160616226674
 31
0.0
  0
LINE
  5
732
330
1F
100
AcDbEntity
  8
Object
100
AcDbLine
 10
8.541737129496699
 20
7.571160616226674
 30
0.0
 11
8.506737129496698
 21
7.588160616226674
 31
0.0
  0
LINE
  5
733
330
1F
100
AcDbEntity
  8
Object
100
AcDbLine
 10
8.506737129496698
 20
7.588160616226674
 30
0.0
 11
8.467737129496699
 21
7.594160616226674
 31
0.0
  0
LINE
  5
734
102
{ACAD_REACTORS
330
863
102
}
330
1F
100
AcDbEntity
  8
Object
100
AcDbLine
 10
8.467737129496699
 20
7.594160616226674
 30
0.0
 11
8.428737129496699
 21
7.587160616226674
 31
0.0
  0
LINE
  5
735
330
1F
100
AcDbEntity
  8
Object
100
AcDbLine
 10
8.558737129496698
 20
6.948160616226673
 30
0.0
 11
8.557737129496699
 21
6.956160616226673
 31
0.0
  0
LINE
  5
736
330
1F
100
AcDbEntity
  8
Object
100
AcDbLine
 10
8.557737129496699
 20
6.956160616226673
 30
0.0
 11
8.553737129496699
 21
6.963160616226674
 31
0.0
  0
LINE
  5
737
330
1F
100
AcDbEntity
  8
Object
100
AcDbLine
 10
8.553737129496699
 20
6.963160616226674
 30
0.0
 11
8.546737129496699
 21
6.968160616226674
 31
0.0
  0
LINE
  5
738
330
1F
100
AcDbEntity
  8
Object
100
AcDbLine
 10
8.546737129496699
 20
6.968160616226674
 30
0.0
 11
8.538737129496698
 21
6.969160616226674
 31
0.0
  0
LINE
  5
739
330
1F
100
AcDbEntity
  8
Object
100
AcDbLine
 10
2.499737129496699
 20
6.859160616226674
 30
0.0
 11
2.496737129496699
 21
6.839160616226673
 31
0.0
  0
LINE
  5
73A
330
1F
100
AcDbEntity
  8
Object
100
AcDbLine
 10
3.212737129496699
 20
3.499160616226673
 30
0.0
 11
3.211737129496698
 21
3.504160616226673
 31
0.0
  0
LINE
  5
73B
330
1F
100
AcDbEntity
  8
Object
100
AcDbLine
 10
3.211737129496698
 20
3.504160616226673
 30
0.0
 11
3.207737129496699
 21
3.508160616226674
 31
0.0
  0
LINE
  5
73C
330
1F
100
AcDbEntity
  8
Object
100
AcDbLine
 10
3.207737129496699
 20
3.508160616226674
 30
0.0
 11
3.202737129496698
 21
3.509160616226674
 31
0.0
  0
LINE
  5
73D
330
1F
100
AcDbEntity
  8
Object
100
AcDbLine
 10
6.656737129496699
 20
3.150160616226674
 30
0.0
 11
6.628737129496699
 21
3.156160616226673
 31
0.0
  0
LINE
  5
73E
330
1F
100
AcDbEntity
  8
Object
100
AcDbLine
 10
6.628737129496699
 20
3.156160616226673
 30
0.0
 11
6.603737129496699
 21
3.172160616226674
 31
0.0
  0
LINE
  5
73F
330
1F
100
AcDbEntity
  8
Object
100
AcDbLine
 10
6.603737129496699
 20
3.172160616226674
 30
0.0
 11
6.587737129496699
 21
3.197160616226674
 31
0.0
  0
LINE
  5
740
330
1F
100
AcDbEntity
  8
Object
100
AcDbLine
 10
6.587737129496699
 20
3.197160616226674
 30
0.0
 11
6.581737129496699
 21
3.225160616226673
 31
0.0
  0
LINE
  5
741
330
1F
100
AcDbEntity
  8
Object
100
AcDbLine
 10
6.931737129496699
 20
3.165160616226674
 30
0.0
 11
6.931737129496699
 21
3.260160616226674
 31
0.0
  0
LINE
  5
742
330
1F
100
AcDbEntity
  8
Object
100
AcDbLine
 10
8.469737129496699
 20
7.430160616226674
 30
0.0
 11
8.467737129496699
 21
7.440160616226674
 31
0.0
  0
LINE
  5
743
330
1F
100
AcDbEntity
  8
Object
100
AcDbLine
 10
8.467737129496699
 20
7.440160616226674
 30
0.0
 11
8.460737129496699
 21
7.448160616226674
 31
0.0
  0
LINE
  5
744
330
1F
100
AcDbEntity
  8
Object
100
AcDbLine
 10
8.460737129496699
 20
7.448160616226674
 30
0.0
 11
8.451737129496699
 21
7.453160616226674
 31
0.0
  0
LINE
  5
745
330
1F
100
AcDbEntity
  8
Object
100
AcDbLine
 10
8.451737129496699
 20
7.453160616226674
 30
0.0
 11
8.441737129496699
 21
7.454160616226674
 31
0.0
  0
LINE
  5
746
330
1F
100
AcDbEntity
  8
Object
100
AcDbLine
 10
8.441737129496699
 20
7.454160616226674
 30
0.0
 11
8.431737129496699
 21
7.451160616226673
 31
0.0
  0
LINE
  5
747
330
1F
100
AcDbEntity
  8
Object
100
AcDbLine
 10
2.807737129496699
 20
3.509160616226674
 30
0.0
 11
3.202737129496698
 21
3.509160616226674
 31
0.0
  0
LINE
  5
748
330
1F
100
AcDbEntity
  8
Object
100
AcDbLine
 10
3.562737129496699
 20
3.165160616226674
 30
0.0
 11
3.560737129496699
 21
3.158160616226674
 31
0.0
  0
LINE
  5
749
330
1F
100
AcDbEntity
  8
Object
100
AcDbLine
 10
3.560737129496699
 20
3.158160616226674
 30
0.0
 11
3.554737129496698
 21
3.152160616226674
 31
0.0
  0
LINE
  5
74A
330
1F
100
AcDbEntity
  8
Object
100
AcDbLine
 10
3.554737129496698
 20
3.152160616226674
 30
0.0
 11
3.547737129496699
 21
3.150160616226674
 31
0.0
  0
LINE
  5
74B
330
1F
100
AcDbEntity
  8
Object
100
AcDbLine
 10
3.877737129496699
 20
3.150160616226674
 30
0.0
 11
3.869737129496699
 21
3.152160616226674
 31
0.0
  0
LINE
  5
74C
330
1F
100
AcDbEntity
  8
Object
100
AcDbLine
 10
3.869737129496699
 20
3.152160616226674
 30
0.0
 11
3.864737129496699
 21
3.158160616226674
 31
0.0
  0
LINE
  5
74D
330
1F
100
AcDbEntity
  8
Object
100
AcDbLine
 10
3.864737129496699
 20
3.158160616226674
 30
0.0
 11
3.862737129496698
 21
3.165160616226674
 31
0.0
  0
LINE
  5
74E
330
1F
100
AcDbEntity
  8
Object
100
AcDbLine
 10
6.656737129496699
 20
3.150160616226674
 30
0.0
 11
6.916737129496699
 21
3.150160616226674
 31
0.0
  0
LINE
  5
74F
330
1F
100
AcDbEntity
  8
Object
100
AcDbLine
 10
2.270737129496699
 20
6.764160616226674
 30
0.0
 11
2.534737129496699
 21
6.764160616226674
 31
0.0
  0
LINE
  5
750
330
1F
100
AcDbEntity
  8
Object
100
AcDbLine
 10
2.454737129496699
 20
7.287160616226674
 30
0.0
 11
2.448737129496699
 21
7.335160616226674
 31
0.0
  0
LINE
  5
751
330
1F
100
AcDbEntity
  8
Object
100
AcDbLine
 10
2.448737129496699
 20
7.335160616226674
 30
0.0
 11
2.430737129496699
 21
7.381160616226674
 31
0.0
  0
LINE
  5
752
330
1F
100
AcDbEntity
  8
Object
100
AcDbLine
 10
2.430737129496699
 20
7.381160616226674
 30
0.0
 11
2.401737129496699
 21
7.420160616226674
 31
0.0
  0
LINE
  5
753
330
1F
100
AcDbEntity
  8
Object
100
AcDbLine
 10
2.401737129496699
 20
7.420160616226674
 30
0.0
 11
2.362737129496698
 21
7.451160616226673
 31
0.0
  0
LINE
  5
754
330
1F
100
AcDbEntity
  8
Object
100
AcDbLine
 10
3.562737129496699
 20
3.165160616226674
 30
0.0
 11
3.562737129496699
 21
3.260160616226674
 31
0.0
  0
LINE
  5
755
330
1F
100
AcDbEntity
  8
Object
100
AcDbLine
 10
4.227737129496698
 20
3.509160616226674
 30
0.0
 11
4.219737129496698
 21
3.507160616226673
 31
0.0
  0
LINE
  5
756
330
1F
100
AcDbEntity
  8
Object
100
AcDbLine
 10
4.219737129496698
 20
3.507160616226673
 30
0.0
 11
4.214737129496699
 21
3.502160616226674
 31
0.0
  0
LINE
  5
757
330
1F
100
AcDbEntity
  8
Object
100
AcDbLine
 10
4.214737129496699
 20
3.502160616226674
 30
0.0
 11
4.212737129496699
 21
3.494160616226674
 31
0.0
  0
LINE
  5
758
330
1F
100
AcDbEntity
  8
Object
100
AcDbLine
 10
7.231737129496699
 20
3.260160616226674
 30
0.0
 11
7.231737129496699
 21
3.165160616226674
 31
0.0
  0
LINE
  5
759
330
1F
100
AcDbEntity
  8
Object
100
AcDbLine
 10
7.806737129496699
 20
3.165160616226674
 30
0.0
 11
7.806737129496699
 21
3.260160616226674
 31
0.0
  0
LINE
  5
75A
330
1F
100
AcDbEntity
  8
Object
100
AcDbLine
 10
2.242737129496699
 20
6.858160616226673
 30
0.0
 11
2.235737129496699
 21
6.948160616226673
 31
0.0
  0
LINE
  5
75B
330
1F
100
AcDbEntity
  8
Object
100
AcDbLine
 10
2.255737129496699
 20
6.969160616226674
 30
0.0
 11
2.247737129496698
 21
6.968160616226674
 31
0.0
  0
LINE
  5
75C
330
1F
100
AcDbEntity
  8
Object
100
AcDbLine
 10
2.247737129496698
 20
6.968160616226674
 30
0.0
 11
2.241737129496699
 21
6.963160616226674
 31
0.0
  0
LINE
  5
75D
330
1F
100
AcDbEntity
  8
Object
100
AcDbLine
 10
2.241737129496699
 20
6.963160616226674
 30
0.0
 11
2.236737129496699
 21
6.956160616226673
 31
0.0
  0
LINE
  5
75E
330
1F
100
AcDbEntity
  8
Object
100
AcDbLine
 10
2.236737129496699
 20
6.956160616226673
 30
0.0
 11
2.235737129496699
 21
6.948160616226673
 31
0.0
  0
LINE
  5
75F
330
1F
100
AcDbEntity
  8
Object
100
AcDbLine
 10
6.581737129496699
 20
3.494160616226674
 30
0.0
 11
6.581737129496699
 21
3.225160616226673
 31
0.0
  0
LINE
  5
760
330
1F
100
AcDbEntity
  8
Object
100
AcDbLine
 10
7.456737129496699
 20
3.499160616226673
 30
0.0
 11
7.455737129496699
 21
3.504160616226673
 31
0.0
  0
LINE
  5
761
330
1F
100
AcDbEntity
  8
Object
100
AcDbLine
 10
7.455737129496699
 20
3.504160616226673
 30
0.0
 11
7.451737129496699
 21
3.508160616226674
 31
0.0
  0
LINE
  5
762
330
1F
100
AcDbEntity
  8
Object
100
AcDbLine
 10
7.451737129496699
 20
3.508160616226674
 30
0.0
 11
7.446737129496699
 21
3.509160616226674
 31
0.0
  0
LINE
  5
763
330
1F
100
AcDbEntity
  8
Object
100
AcDbLine
 10
8.594737129496699
 20
7.287160616226674
 30
0.0
 11
8.594737129496699
 21
7.469160616226674
 31
0.0
  0
LINE
  5
764
330
1F
100
AcDbEntity
  8
Object
100
AcDbLine
 10
2.573737129496699
 20
6.787160616226674
 30
0.0
 11
2.579737129496699
 21
6.810160616226673
 31
0.0
  0
LINE
  5
765
330
1F
100
AcDbEntity
  8
Object
100
AcDbLine
 10
2.579737129496699
 20
6.810160616226673
 30
0.0
 11
2.573737129496699
 21
6.833160616226674
 31
0.0
  0
LINE
  5
766
330
1F
100
AcDbEntity
  8
Object
100
AcDbLine
 10
2.573737129496699
 20
6.833160616226674
 30
0.0
 11
2.557737129496699
 21
6.849160616226674
 31
0.0
  0
LINE
  5
767
330
1F
100
AcDbEntity
  8
Object
100
AcDbLine
 10
2.573737129496699
 20
6.787160616226674
 30
0.0
 11
2.557737129496699
 21
6.770160616226673
 31
0.0
  0
LINE
  5
768
330
1F
100
AcDbEntity
  8
Object
100
AcDbLine
 10
2.557737129496699
 20
6.770160616226673
 30
0.0
 11
2.534737129496699
 21
6.764160616226674
 31
0.0
  0
LINE
  5
769
330
1F
100
AcDbEntity
  8
Object
100
AcDbLine
 10
2.324737129496698
 20
7.287160616226674
 30
0.0
 11
2.320737129496698
 21
7.263160616226674
 31
0.0
  0
LINE
  5
76A
330
1F
100
AcDbEntity
  8
Object
100
AcDbLine
 10
2.320737129496698
 20
7.263160616226674
 30
0.0
 11
2.306737129496699
 21
7.243160616226674
 31
0.0
  0
LINE
  5
76B
330
1F
100
AcDbEntity
  8
Object
100
AcDbLine
 10
2.306737129496699
 20
7.243160616226674
 30
0.0
 11
2.286737129496699
 21
7.229160616226674
 31
0.0
  0
LINE
  5
76C
330
1F
100
AcDbEntity
  8
Object
100
AcDbLine
 10
2.286737129496699
 20
7.229160616226674
 30
0.0
 11
2.262737129496699
 21
7.224160616226674
 31
0.0
  0
LINE
  5
76D
330
1F
100
AcDbEntity
  8
Object
100
AcDbLine
 10
3.562737129496699
 20
3.260160616226674
 30
0.0
 11
3.560737129496699
 21
3.268160616226674
 31
0.0
  0
LINE
  5
76E
330
1F
100
AcDbEntity
  8
Object
100
AcDbLine
 10
3.560737129496699
 20
3.268160616226674
 30
0.0
 11
3.554737129496698
 21
3.273160616226673
 31
0.0
  0
LINE
  5
76F
330
1F
100
AcDbEntity
  8
Object
100
AcDbLine
 10
3.554737129496698
 20
3.273160616226673
 30
0.0
 11
3.547737129496699
 21
3.275160616226674
 31
0.0
  0
LINE
  5
770
330
1F
100
AcDbEntity
  8
Object
100
AcDbLine
 10
3.337737129496699
 20
3.285160616226674
 30
0.0
 11
3.337737129496699
 21
3.499160616226673
 31
0.0
  0
LINE
  5
771
330
1F
100
AcDbEntity
  8
Object
100
AcDbLine
 10
7.456737129496699
 20
3.285160616226674
 30
0.0
 11
7.455737129496699
 21
3.280160616226674
 31
0.0
  0
LINE
  5
772
330
1F
100
AcDbEntity
  8
Object
100
AcDbLine
 10
7.455737129496699
 20
3.280160616226674
 30
0.0
 11
7.451737129496699
 21
3.277160616226674
 31
0.0
  0
LINE
  5
773
330
1F
100
AcDbEntity
  8
Object
100
AcDbLine
 10
7.451737129496699
 20
3.277160616226674
 30
0.0
 11
7.446737129496699
 21
3.275160616226674
 31
0.0
  0
LINE
  5
774
330
1F
100
AcDbEntity
  8
Object
100
AcDbLine
 10
7.591737129496698
 20
3.509160616226674
 30
0.0
 11
7.586737129496698
 21
3.508160616226674
 31
0.0
  0
LINE
  5
775
330
1F
100
AcDbEntity
  8
Object
100
AcDbLine
 10
7.586737129496698
 20
3.508160616226674
 30
0.0
 11
7.582737129496699
 21
3.504160616226673
 31
0.0
  0
LINE
  5
776
330
1F
100
AcDbEntity
  8
Object
100
AcDbLine
 10
7.582737129496699
 20
3.504160616226673
 30
0.0
 11
7.581737129496699
 21
3.499160616226673
 31
0.0
  0
LINE
  5
777
330
1F
100
AcDbEntity
  8
Object
100
AcDbLine
 10
8.359737129496698
 20
7.094160616226674
 30
0.0
 11
8.349737129496698
 21
7.097160616226673
 31
0.0
  0
LINE
  5
778
330
1F
100
AcDbEntity
  8
Object
100
AcDbLine
 10
8.349737129496698
 20
7.097160616226673
 30
0.0
 11
8.341737129496699
 21
7.104160616226674
 31
0.0
  0
LINE
  5
779
330
1F
100
AcDbEntity
  8
Object
100
AcDbLine
 10
8.341737129496699
 20
7.104160616226674
 30
0.0
 11
8.339737129496699
 21
7.114160616226674
 31
0.0
  0
LINE
  5
77A
330
1F
100
AcDbEntity
  8
Object
100
AcDbLine
 10
2.807737129496699
 20
3.634160616226674
 30
0.0
 11
2.739737129496699
 21
3.641160616226674
 31
0.0
  0
LINE
  5
77B
330
1F
100
AcDbEntity
  8
Object
100
AcDbLine
 10
2.739737129496699
 20
3.641160616226674
 30
0.0
 11
2.673737129496698
 21
3.660160616226674
 31
0.0
  0
LINE
  5
77C
330
1F
100
AcDbEntity
  8
Object
100
AcDbLine
 10
2.673737129496698
 20
3.660160616226674
 30
0.0
 11
2.612737129496698
 21
3.691160616226674
 31
0.0
  0
LINE
  5
77D
330
1F
100
AcDbEntity
  8
Object
100
AcDbLine
 10
2.612737129496698
 20
3.691160616226674
 30
0.0
 11
2.558737129496699
 21
3.732160616226674
 31
0.0
  0
LINE
  5
77E
330
1F
100
AcDbEntity
  8
Object
100
AcDbLine
 10
2.558737129496699
 20
3.732160616226674
 30
0.0
 11
2.513737129496698
 21
3.783160616226674
 31
0.0
  0
LINE
  5
77F
330
1F
100
AcDbEntity
  8
Object
100
AcDbLine
 10
2.513737129496698
 20
3.783160616226674
 30
0.0
 11
2.478737129496699
 21
3.842160616226674
 31
0.0
  0
LINE
  5
780
330
1F
100
AcDbEntity
  8
Object
100
AcDbLine
 10
2.478737129496699
 20
3.842160616226674
 30
0.0
 11
2.454737129496699
 21
3.906160616226673
 31
0.0
  0
LINE
  5
781
330
1F
100
AcDbEntity
  8
Object
100
AcDbLine
 10
2.454737129496699
 20
3.906160616226673
 30
0.0
 11
2.443737129496699
 21
3.974160616226674
 31
0.0
  0
LINE
  5
782
330
1F
100
AcDbEntity
  8
Object
100
AcDbLine
 10
2.539737129496699
 20
6.859160616226674
 30
0.0
 11
2.499737129496699
 21
6.859160616226674
 31
0.0
  0
LINE
  5
783
330
1F
100
AcDbEntity
  8
Object
100
AcDbLine
 10
3.212737129496699
 20
3.499160616226673
 30
0.0
 11
3.212737129496699
 21
3.285160616226674
 31
0.0
  0
LINE
  5
784
330
1F
100
AcDbEntity
  8
Object
100
AcDbLine
 10
7.456737129496699
 20
3.499160616226673
 30
0.0
 11
7.456737129496699
 21
3.285160616226674
 31
0.0
  0
LINE
  5
785
330
1F
100
AcDbEntity
  8
Object
100
AcDbLine
 10
7.806737129496699
 20
3.165160616226674
 30
0.0
 11
7.804737129496698
 21
3.158160616226674
 31
0.0
  0
LINE
  5
786
330
1F
100
AcDbEntity
  8
Object
100
AcDbLine
 10
7.804737129496698
 20
3.158160616226674
 30
0.0
 11
7.799737129496699
 21
3.152160616226674
 31
0.0
  0
LINE
  5
787
330
1F
100
AcDbEntity
  8
Object
100
AcDbLine
 10
7.799737129496699
 20
3.152160616226674
 30
0.0
 11
7.791737129496699
 21
3.150160616226674
 31
0.0
  0
LINE
  5
788
330
1F
100
AcDbEntity
  8
Object
100
AcDbLine
 10
7.791737129496699
 20
3.275160616226674
 30
0.0
 11
7.591737129496698
 21
3.275160616226674
 31
0.0
  0
LINE
  5
789
330
1F
100
AcDbEntity
  8
Object
100
AcDbLine
 10
8.339737129496699
 20
7.114160616226674
 30
0.0
 11
8.339737129496699
 21
7.287160616226674
 31
0.0
  0
LINE
  5
78A
330
1F
100
AcDbEntity
  8
Object
100
AcDbLine
 10
8.531737129496699
 20
7.224160616226674
 30
0.0
 11
8.5077371294967
 21
7.229160616226674
 31
0.0
  0
LINE
  5
78B
330
1F
100
AcDbEntity
  8
Object
100
AcDbLine
 10
8.5077371294967
 20
7.229160616226674
 30
0.0
 11
8.487737129496698
 21
7.243160616226674
 31
0.0
  0
LINE
  5
78C
330
1F
100
AcDbEntity
  8
Object
100
AcDbLine
 10
8.487737129496698
 20
7.243160616226674
 30
0.0
 11
8.474737129496698
 21
7.263160616226674
 31
0.0
  0
LINE
  5
78D
330
1F
100
AcDbEntity
  8
Object
100
AcDbLine
 10
8.474737129496698
 20
7.263160616226674
 30
0.0
 11
8.469737129496699
 21
7.287160616226674
 31
0.0
  0
LINE
  5
78E
330
1F
100
AcDbEntity
  8
Object
100
AcDbLine
 10
7.986737129496699
 20
3.634160616226674
 30
0.0
 11
2.807737129496699
 21
3.634160616226674
 31
0.0
  0
LINE
  5
78F
330
1F
100
AcDbEntity
  8
Object
100
AcDbLine
 10
3.002737129496699
 20
3.150160616226674
 30
0.0
 11
3.547737129496699
 21
3.150160616226674
 31
0.0
  0
LINE
  5
790
330
1F
100
AcDbEntity
  8
Object
100
AcDbLine
 10
7.806737129496699
 20
3.260160616226674
 30
0.0
 11
7.804737129496698
 21
3.268160616226674
 31
0.0
  0
LINE
  5
791
330
1F
100
AcDbEntity
  8
Object
100
AcDbLine
 10
7.804737129496698
 20
3.268160616226674
 30
0.0
 11
7.799737129496699
 21
3.273160616226673
 31
0.0
  0
LINE
  5
792
330
1F
100
AcDbEntity
  8
Object
100
AcDbLine
 10
7.799737129496699
 20
3.273160616226673
 30
0.0
 11
7.791737129496699
 21
3.275160616226674
 31
0.0
  0
LINE
  5
793
330
1F
100
AcDbEntity
  8
Object
100
AcDbLine
 10
8.237737129496698
 20
6.770160616226673
 30
0.0
 11
8.259737129496699
 21
6.764160616226674
 31
0.0
  0
LINE
  5
794
330
1F
100
AcDbEntity
  8
Object
100
AcDbLine
 10
8.237737129496698
 20
6.849160616226674
 30
0.0
 11
8.220737129496699
 21
6.833160616226674
 31
0.0
  0
LINE
  5
795
330
1F
100
AcDbEntity
  8
Object
100
AcDbLine
 10
8.237737129496698
 20
6.770160616226673
 30
0.0
 11
8.220737129496699
 21
6.787160616226674
 31
0.0
  0
LINE
  5
796
330
1F
100
AcDbEntity
  8
Object
100
AcDbLine
 10
8.220737129496699
 20
6.787160616226674
 30
0.0
 11
8.214737129496699
 21
6.810160616226673
 31
0.0
  0
LINE
  5
797
330
1F
100
AcDbEntity
  8
Object
100
AcDbLine
 10
8.214737129496699
 20
6.810160616226673
 30
0.0
 11
8.220737129496699
 21
6.833160616226674
 31
0.0
  0
LINE
  5
798
330
1F
100
AcDbEntity
  8
Object
100
AcDbLine
 10
2.579737129496699
 20
7.034160616226674
 30
0.0
 11
2.579737129496699
 21
7.287160616226674
 31
0.0
  0
LINE
  5
799
330
1F
100
AcDbEntity
  8
Object
100
AcDbLine
 10
2.262737129496699
 20
7.224160616226674
 30
0.0
 11
2.238737129496699
 21
7.229160616226674
 31
0.0
  0
LINE
  5
79A
330
1F
100
AcDbEntity
  8
Object
100
AcDbLine
 10
2.238737129496699
 20
7.229160616226674
 30
0.0
 11
2.218737129496698
 21
7.243160616226674
 31
0.0
  0
LINE
  5
79B
330
1F
100
AcDbEntity
  8
Object
100
AcDbLine
 10
2.218737129496698
 20
7.243160616226674
 30
0.0
 11
2.204737129496699
 21
7.263160616226674
 31
0.0
  0
LINE
  5
79C
330
1F
100
AcDbEntity
  8
Object
100
AcDbLine
 10
2.204737129496699
 20
7.263160616226674
 30
0.0
 11
2.199737129496698
 21
7.287160616226674
 31
0.0
  0
LINE
  5
79D
330
1F
100
AcDbEntity
  8
Object
100
AcDbLine
 10
3.002737129496699
 20
3.275160616226674
 30
0.0
 11
2.995737129496699
 21
3.273160616226673
 31
0.0
  0
LINE
  5
79E
330
1F
100
AcDbEntity
  8
Object
100
AcDbLine
 10
2.995737129496699
 20
3.273160616226673
 30
0.0
 11
2.989737129496699
 21
3.268160616226674
 31
0.0
  0
LINE
  5
79F
330
1F
100
AcDbEntity
  8
Object
100
AcDbLine
 10
2.989737129496699
 20
3.268160616226674
 30
0.0
 11
2.987737129496698
 21
3.260160616226674
 31
0.0
  0
LINE
  5
7A0
330
1F
100
AcDbEntity
  8
Object
100
AcDbLine
 10
6.931737129496699
 20
3.260160616226674
 30
0.0
 11
6.929737129496698
 21
3.268160616226674
 31
0.0
  0
LINE
  5
7A1
330
1F
100
AcDbEntity
  8
Object
100
AcDbLine
 10
6.929737129496698
 20
3.268160616226674
 30
0.0
 11
6.924737129496699
 21
3.273160616226673
 31
0.0
  0
LINE
  5
7A2
330
1F
100
AcDbEntity
  8
Object
100
AcDbLine
 10
6.924737129496699
 20
3.273160616226673
 30
0.0
 11
6.916737129496699
 21
3.275160616226674
 31
0.0
  0
LINE
  5
7A3
330
1F
100
AcDbEntity
  8
Object
100
AcDbLine
 10
8.4757371294967
 20
3.965160616226674
 30
0.0
 11
8.689737129496698
 21
7.025160616226674
 31
0.0
  0
LINE
  5
7A4
330
1F
100
AcDbEntity
  8
Object
100
AcDbLine
 10
8.624737129496699
 20
7.094160616226674
 30
0.0
 11
8.359737129496698
 21
7.094160616226674
 31
0.0
  0
LINE
  5
7A5
330
1F
100
AcDbEntity
  8
Object
100
AcDbLine
 10
8.431737129496699
 20
7.451160616226673
 30
0.0
 11
8.393737129496699
 21
7.420160616226674
 31
0.0
  0
LINE
  5
7A6
330
1F
100
AcDbEntity
  8
Object
100
AcDbLine
 10
8.393737129496699
 20
7.420160616226674
 30
0.0
 11
8.3637371294967
 21
7.381160616226674
 31
0.0
  0
LINE
  5
7A7
330
1F
100
AcDbEntity
  8
Object
100
AcDbLine
 10
8.3637371294967
 20
7.381160616226674
 30
0.0
 11
8.345737129496699
 21
7.335160616226674
 31
0.0
  0
LINE
  5
7A8
330
1F
100
AcDbEntity
  8
Object
100
AcDbLine
 10
8.345737129496699
 20
7.335160616226674
 30
0.0
 11
8.339737129496699
 21
7.287160616226674
 31
0.0
  0
LINE
  5
7A9
330
1F
100
AcDbEntity
  8
Object
100
AcDbLine
 10
8.544737129496699
 20
6.743160616226674
 30
0.0
 11
8.3507371294967
 21
3.974160616226674
 31
0.0
  0
LINE
  5
7AA
330
1F
100
AcDbEntity
  8
Object
100
AcDbLine
 10
2.261737129496699
 20
6.839160616226673
 30
0.0
 11
2.252737129496699
 21
6.842160616226673
 31
0.0
  0
LINE
  5
7AB
330
1F
100
AcDbEntity
  8
Object
100
AcDbLine
 10
2.252737129496699
 20
6.842160616226673
 30
0.0
 11
2.245737129496699
 21
6.848160616226674
 31
0.0
  0
LINE
  5
7AC
330
1F
100
AcDbEntity
  8
Object
100
AcDbLine
 10
2.245737129496699
 20
6.848160616226674
 30
0.0
 11
2.242737129496699
 21
6.858160616226673
 31
0.0
  0
LINE
  5
7AD
330
1F
100
AcDbEntity
  8
Object
100
AcDbLine
 10
2.255737129496699
 20
6.969160616226674
 30
0.0
 11
2.514737129496699
 21
6.969160616226674
 31
0.0
  0
LINE
  5
7AE
330
1F
100
AcDbEntity
  8
Object
100
AcDbLine
 10
2.105737129496699
 20
7.025160616226674
 30
0.0
 11
2.318737129496699
 21
3.965160616226674
 31
0.0
  0
LINE
  5
7AF
330
1F
100
AcDbEntity
  8
Object
100
AcDbLine
 10
3.202737129496698
 20
3.275160616226674
 30
0.0
 11
3.002737129496699
 21
3.275160616226674
 31
0.0
  0
LINE
  5
7B0
330
1F
100
AcDbEntity
  8
Object
100
AcDbLine
 10
3.347737129496699
 20
3.275160616226674
 30
0.0
 11
3.342737129496699
 21
3.277160616226674
 31
0.0
  0
LINE
  5
7B1
330
1F
100
AcDbEntity
  8
Object
100
AcDbLine
 10
3.342737129496699
 20
3.277160616226674
 30
0.0
 11
3.338737129496699
 21
3.280160616226674
 31
0.0
  0
LINE
  5
7B2
330
1F
100
AcDbEntity
  8
Object
100
AcDbLine
 10
3.338737129496699
 20
3.280160616226674
 30
0.0
 11
3.337737129496699
 21
3.285160616226674
 31
0.0
  0
LINE
  5
7B3
330
1F
100
AcDbEntity
  8
Object
100
AcDbLine
 10
7.591737129496698
 20
3.275160616226674
 30
0.0
 11
7.586737129496698
 21
3.277160616226674
 31
0.0
  0
LINE
  5
7B4
330
1F
100
AcDbEntity
  8
Object
100
AcDbLine
 10
7.586737129496698
 20
3.277160616226674
 30
0.0
 11
7.582737129496699
 21
3.280160616226674
 31
0.0
  0
LINE
  5
7B5
330
1F
100
AcDbEntity
  8
Object
100
AcDbLine
 10
7.582737129496699
 20
3.280160616226674
 30
0.0
 11
7.581737129496699
 21
3.285160616226674
 31
0.0
  0
LINE
  5
7B6
330
1F
100
AcDbEntity
  8
Object
100
AcDbLine
 10
8.294737129496699
 20
6.859160616226674
 30
0.0
 11
8.2547371294967
 21
6.859160616226674
 31
0.0
  0
LINE
  5
7B7
330
1F
100
AcDbEntity
  8
Object
100
AcDbLine
 10
8.2547371294967
 20
6.859160616226674
 30
0.0
 11
8.237737129496698
 21
6.849160616226674
 31
0.0
  0
LINE
  5
7B8
330
1F
100
AcDbEntity
  8
Object
100
AcDbLine
 10
8.259737129496699
 20
6.764160616226674
 30
0.0
 11
8.524737129496699
 21
6.764160616226674
 31
0.0
  0
LINE
  5
7B9
330
1F
100
AcDbEntity
  8
Object
100
AcDbLine
 10
2.454737129496699
 20
7.287160616226674
 30
0.0
 11
2.454737129496699
 21
7.114160616226674
 31
0.0
  0
LINE
  5
7BA
330
1F
100
AcDbEntity
  8
Object
100
AcDbLine
 10
3.212737129496699
 20
3.285160616226674
 30
0.0
 11
3.211737129496698
 21
3.280160616226674
 31
0.0
  0
LINE
  5
7BB
330
1F
100
AcDbEntity
  8
Object
100
AcDbLine
 10
3.211737129496698
 20
3.280160616226674
 30
0.0
 11
3.207737129496699
 21
3.277160616226674
 31
0.0
  0
LINE
  5
7BC
330
1F
100
AcDbEntity
  8
Object
100
AcDbLine
 10
3.207737129496699
 20
3.277160616226674
 30
0.0
 11
3.202737129496698
 21
3.275160616226674
 31
0.0
  0
LINE
  5
7BD
330
1F
100
AcDbEntity
  8
Object
100
AcDbLine
 10
3.547737129496699
 20
3.275160616226674
 30
0.0
 11
3.347737129496699
 21
3.275160616226674
 31
0.0
  0
LINE
  5
7BE
330
1F
100
AcDbEntity
  8
Object
100
AcDbLine
 10
6.581737129496699
 20
3.494160616226674
 30
0.0
 11
6.579737129496699
 21
3.502160616226674
 31
0.0
  0
LINE
  5
7BF
330
1F
100
AcDbEntity
  8
Object
100
AcDbLine
 10
6.579737129496699
 20
3.502160616226674
 30
0.0
 11
6.574737129496699
 21
3.507160616226673
 31
0.0
  0
LINE
  5
7C0
330
1F
100
AcDbEntity
  8
Object
100
AcDbLine
 10
6.574737129496699
 20
3.507160616226673
 30
0.0
 11
6.566737129496699
 21
3.509160616226674
 31
0.0
  0
LINE
  5
7C1
330
1F
100
AcDbEntity
  8
Object
100
AcDbLine
 10
6.706737129496699
 20
3.285160616226674
 30
0.0
 11
6.706737129496699
 21
3.499160616226673
 31
0.0
  0
LINE
  5
7C2
102
{ACAD_REACTORS
330
849
102
}
330
1F
100
AcDbEntity
  8
Object
100
AcDbLine
 10
8.689737129496698
 20
7.025160616226674
 30
0.0
 11
8.685737129496699
 21
7.051160616226674
 31
0.0
  0
LINE
  5
7C3
330
1F
100
AcDbEntity
  8
Object
100
AcDbLine
 10
8.685737129496699
 20
7.051160616226674
 30
0.0
 11
8.671737129496699
 21
7.074160616226674
 31
0.0
  0
LINE
  5
7C4
330
1F
100
AcDbEntity
  8
Object
100
AcDbLine
 10
8.671737129496699
 20
7.074160616226674
 30
0.0
 11
8.650737129496699
 21
7.089160616226673
 31
0.0
  0
LINE
  5
7C5
330
1F
100
AcDbEntity
  8
Object
100
AcDbLine
 10
8.650737129496699
 20
7.089160616226673
 30
0.0
 11
8.624737129496699
 21
7.094160616226674
 31
0.0
  0
LINE
  5
7C6
330
1F
100
AcDbEntity
  8
Object
100
AcDbLine
 10
8.594737129496699
 20
7.287160616226674
 30
0.0
 11
8.589737129496699
 21
7.263160616226674
 31
0.0
  0
LINE
  5
7C7
330
1F
100
AcDbEntity
  8
Object
100
AcDbLine
 10
8.589737129496699
 20
7.263160616226674
 30
0.0
 11
8.575737129496699
 21
7.243160616226674
 31
0.0
  0
LINE
  5
7C8
330
1F
100
AcDbEntity
  8
Object
100
AcDbLine
 10
8.575737129496699
 20
7.243160616226674
 30
0.0
 11
8.5557371294967
 21
7.229160616226674
 31
0.0
  0
LINE
  5
7C9
330
1F
100
AcDbEntity
  8
Object
100
AcDbLine
 10
8.5557371294967
 20
7.229160616226674
 30
0.0
 11
8.531737129496699
 21
7.224160616226674
 31
0.0
  0
LINE
  5
7CA
330
1F
100
AcDbEntity
  8
Object
100
AcDbLine
 10
8.279737129496698
 20
6.969160616226674
 30
0.0
 11
8.2547371294967
 21
6.974160616226674
 31
0.0
  0
LINE
  5
7CB
330
1F
100
AcDbEntity
  8
Object
100
AcDbLine
 10
8.2547371294967
 20
6.974160616226674
 30
0.0
 11
8.233737129496699
 21
6.988160616226673
 31
0.0
  0
LINE
  5
7CC
330
1F
100
AcDbEntity
  8
Object
100
AcDbLine
 10
8.233737129496699
 20
6.988160616226673
 30
0.0
 11
8.219737129496699
 21
7.009160616226674
 31
0.0
  0
LINE
  5
7CD
330
1F
100
AcDbEntity
  8
Object
100
AcDbLine
 10
8.219737129496699
 20
7.009160616226674
 30
0.0
 11
8.214737129496699
 21
7.034160616226674
 31
0.0
  0
LINE
  5
7CE
330
1F
100
AcDbEntity
  8
Object
100
AcDbLine
 10
2.443737129496699
 20
3.974160616226674
 30
0.0
 11
2.250737129496698
 21
6.743160616226674
 31
0.0
  0
LINE
  5
7CF
330
1F
100
AcDbEntity
  8
Object
100
AcDbLine
 10
2.362737129496698
 20
7.451160616226673
 30
0.0
 11
2.353737129496699
 21
7.454160616226674
 31
0.0
  0
LINE
  5
7D0
330
1F
100
AcDbEntity
  8
Object
100
AcDbLine
 10
2.353737129496699
 20
7.454160616226674
 30
0.0
 11
2.342737129496699
 21
7.453160616226674
 31
0.0
  0
LINE
  5
7D1
330
1F
100
AcDbEntity
  8
Object
100
AcDbLine
 10
2.342737129496699
 20
7.453160616226674
 30
0.0
 11
2.333737129496698
 21
7.448160616226674
 31
0.0
  0
LINE
  5
7D2
330
1F
100
AcDbEntity
  8
Object
100
AcDbLine
 10
2.333737129496698
 20
7.448160616226674
 30
0.0
 11
2.327737129496698
 21
7.440160616226674
 31
0.0
  0
LINE
  5
7D3
330
1F
100
AcDbEntity
  8
Object
100
AcDbLine
 10
2.327737129496698
 20
7.440160616226674
 30
0.0
 11
2.324737129496698
 21
7.430160616226674
 31
0.0
  0
LINE
  5
7D4
330
1F
100
AcDbEntity
  8
Object
100
AcDbLine
 10
2.807737129496699
 20
3.509160616226674
 30
0.0
 11
2.726737129496699
 21
3.516160616226674
 31
0.0
  0
LINE
  5
7D5
330
1F
100
AcDbEntity
  8
Object
100
AcDbLine
 10
2.726737129496699
 20
3.516160616226674
 30
0.0
 11
2.647737129496698
 21
3.536160616226673
 31
0.0
  0
LINE
  5
7D6
330
1F
100
AcDbEntity
  8
Object
100
AcDbLine
 10
2.647737129496698
 20
3.536160616226673
 30
0.0
 11
2.572737129496699
 21
3.569160616226674
 31
0.0
  0
LINE
  5
7D7
330
1F
100
AcDbEntity
  8
Object
100
AcDbLine
 10
2.572737129496699
 20
3.569160616226674
 30
0.0
 11
2.504737129496699
 21
3.614160616226674
 31
0.0
  0
LINE
  5
7D8
330
1F
100
AcDbEntity
  8
Object
100
AcDbLine
 10
2.504737129496699
 20
3.614160616226674
 30
0.0
 11
2.444737129496699
 21
3.670160616226674
 31
0.0
  0
LINE
  5
7D9
330
1F
100
AcDbEntity
  8
Object
100
AcDbLine
 10
2.444737129496699
 20
3.670160616226674
 30
0.0
 11
2.395737129496699
 21
3.735160616226674
 31
0.0
  0
LINE
  5
7DA
330
1F
100
AcDbEntity
  8
Object
100
AcDbLine
 10
2.395737129496699
 20
3.735160616226674
 30
0.0
 11
2.357737129496699
 21
3.807160616226674
 31
0.0
  0
LINE
  5
7DB
330
1F
100
AcDbEntity
  8
Object
100
AcDbLine
 10
2.357737129496699
 20
3.807160616226674
 30
0.0
 11
2.331737129496699
 21
3.884160616226674
 31
0.0
  0
LINE
  5
7DC
330
1F
100
AcDbEntity
  8
Object
100
AcDbLine
 10
2.331737129496699
 20
3.884160616226674
 30
0.0
 11
2.318737129496699
 21
3.965160616226674
 31
0.0
  0
LINE
  5
7DD
330
1F
100
AcDbEntity
  8
Object
100
AcDbLine
 10
4.227737129496698
 20
3.509160616226674
 30
0.0
 11
6.566737129496699
 21
3.509160616226674
 31
0.0
  0
LINE
  5
7DE
330
1F
100
AcDbEntity
  8
Object
100
AcDbLine
 10
6.716737129496698
 20
3.275160616226674
 30
0.0
 11
6.711737129496698
 21
3.277160616226674
 31
0.0
  0
LINE
  5
7DF
330
1F
100
AcDbEntity
  8
Object
100
AcDbLine
 10
6.711737129496698
 20
3.277160616226674
 30
0.0
 11
6.708737129496698
 21
3.280160616226674
 31
0.0
  0
LINE
  5
7E0
330
1F
100
AcDbEntity
  8
Object
100
AcDbLine
 10
6.708737129496698
 20
3.280160616226674
 30
0.0
 11
6.706737129496699
 21
3.285160616226674
 31
0.0
  0
LINE
  5
7E1
330
1F
100
AcDbEntity
  8
Object
100
AcDbLine
 10
7.581737129496699
 20
3.285160616226674
 30
0.0
 11
7.581737129496699
 21
3.499160616226673
 31
0.0
  0
LINE
  5
7E2
330
1F
100
AcDbEntity
  8
Object
100
AcDbLine
 10
8.4757371294967
 20
3.965160616226674
 30
0.0
 11
8.462737129496698
 21
3.884160616226674
 31
0.0
  0
LINE
  5
7E3
330
1F
100
AcDbEntity
  8
Object
100
AcDbLine
 10
8.462737129496698
 20
3.884160616226674
 30
0.0
 11
8.437737129496699
 21
3.807160616226674
 31
0.0
  0
LINE
  5
7E4
330
1F
100
AcDbEntity
  8
Object
100
AcDbLine
 10
8.437737129496699
 20
3.807160616226674
 30
0.0
 11
8.3987371294967
 21
3.735160616226674
 31
0.0
  0
LINE
  5
7E5
330
1F
100
AcDbEntity
  8
Object
100
AcDbLine
 10
8.3987371294967
 20
3.735160616226674
 30
0.0
 11
8.349737129496698
 21
3.670160616226674
 31
0.0
  0
LINE
  5
7E6
330
1F
100
AcDbEntity
  8
Object
100
AcDbLine
 10
8.349737129496698
 20
3.670160616226674
 30
0.0
 11
8.2897371294967
 21
3.614160616226674
 31
0.0
  0
LINE
  5
7E7
330
1F
100
AcDbEntity
  8
Object
100
AcDbLine
 10
8.2897371294967
 20
3.614160616226674
 30
0.0
 11
8.221737129496698
 21
3.569160616226674
 31
0.0
  0
LINE
  5
7E8
330
1F
100
AcDbEntity
  8
Object
100
AcDbLine
 10
8.221737129496698
 20
3.569160616226674
 30
0.0
 11
8.146737129496699
 21
3.536160616226673
 31
0.0
  0
LINE
  5
7E9
330
1F
100
AcDbEntity
  8
Object
100
AcDbLine
 10
8.146737129496699
 20
3.536160616226673
 30
0.0
 11
8.067737129496698
 21
3.516160616226674
 31
0.0
  0
LINE
  5
7EA
330
1F
100
AcDbEntity
  8
Object
100
AcDbLine
 10
8.067737129496698
 20
3.516160616226674
 30
0.0
 11
7.986737129496699
 21
3.509160616226674
 31
0.0
  0
LINE
  5
7EB
330
1F
100
AcDbEntity
  8
Object
100
AcDbLine
 10
8.428737129496699
 20
7.587160616226674
 30
0.0
 11
8.369737129496698
 21
7.559160616226674
 31
0.0
  0
LINE
  5
7EC
330
1F
100
AcDbEntity
  8
Object
100
AcDbLine
 10
8.369737129496698
 20
7.559160616226674
 30
0.0
 11
8.316737129496699
 21
7.520160616226673
 31
0.0
  0
LINE
  5
7ED
330
1F
100
AcDbEntity
  8
Object
100
AcDbLine
 10
8.316737129496699
 20
7.520160616226673
 30
0.0
 11
8.2737371294967
 21
7.471160616226674
 31
0.0
  0
LINE
  5
7EE
330
1F
100
AcDbEntity
  8
Object
100
AcDbLine
 10
8.2737371294967
 20
7.471160616226674
 30
0.0
 11
8.2417371294967
 21
7.414160616226673
 31
0.0
  0
LINE
  5
7EF
330
1F
100
AcDbEntity
  8
Object
100
AcDbLine
 10
8.2417371294967
 20
7.414160616226673
 30
0.0
 11
8.221737129496698
 21
7.352160616226674
 31
0.0
  0
LINE
  5
7F0
330
1F
100
AcDbEntity
  8
Object
100
AcDbLine
 10
8.221737129496698
 20
7.352160616226674
 30
0.0
 11
8.214737129496699
 21
7.287160616226674
 31
0.0
  0
LINE
  5
7F1
330
1F
100
AcDbEntity
  8
Object
100
AcDbLine
 10
8.558737129496698
 20
6.948160616226673
 30
0.0
 11
8.5527371294967
 21
6.858160616226673
 31
0.0
  0
LINE
  5
7F2
330
1F
100
AcDbEntity
  8
Object
100
AcDbLine
 10
8.544737129496699
 20
6.743160616226674
 30
0.0
 11
8.542737129496698
 21
6.751160616226674
 31
0.0
  0
LINE
  5
7F3
330
1F
100
AcDbEntity
  8
Object
100
AcDbLine
 10
8.542737129496698
 20
6.751160616226674
 30
0.0
 11
8.538737129496698
 21
6.758160616226674
 31
0.0
  0
LINE
  5
7F4
330
1F
100
AcDbEntity
  8
Object
100
AcDbLine
 10
8.538737129496698
 20
6.758160616226674
 30
0.0
 11
8.532737129496698
 21
6.763160616226674
 31
0.0
  0
LINE
  5
7F5
330
1F
100
AcDbEntity
  8
Object
100
AcDbLine
 10
8.532737129496698
 20
6.763160616226674
 30
0.0
 11
8.524737129496699
 21
6.764160616226674
 31
0.0
  0
LINE
  5
7F6
330
1F
100
AcDbEntity
  8
Object
100
AcDbLine
 10
2.496737129496699
 20
6.839160616226673
 30
0.0
 11
2.261737129496699
 21
6.839160616226673
 31
0.0
  0
LINE
  5
7F7
330
1F
100
AcDbEntity
  8
Object
100
AcDbLine
 10
2.454737129496699
 20
7.114160616226674
 30
0.0
 11
2.452737129496698
 21
7.104160616226674
 31
0.0
  0
LINE
  5
7F8
330
1F
100
AcDbEntity
  8
Object
100
AcDbLine
 10
2.452737129496698
 20
7.104160616226674
 30
0.0
 11
2.444737129496699
 21
7.097160616226673
 31
0.0
  0
LINE
  5
7F9
330
1F
100
AcDbEntity
  8
Object
100
AcDbLine
 10
2.444737129496699
 20
7.097160616226673
 30
0.0
 11
2.434737129496699
 21
7.094160616226674
 31
0.0
  0
LINE
  5
7FA
330
1F
100
AcDbEntity
  8
Object
100
AcDbLine
 10
6.916737129496699
 20
3.275160616226674
 30
0.0
 11
6.716737129496698
 21
3.275160616226674
 31
0.0
  0
LINE
  5
7FB
330
1F
100
AcDbEntity
  8
Object
100
AcDbLine
 10
6.716737129496698
 20
3.509160616226674
 30
0.0
 11
6.711737129496698
 21
3.508160616226674
 31
0.0
  0
LINE
  5
7FC
330
1F
100
AcDbEntity
  8
Object
100
AcDbLine
 10
6.711737129496698
 20
3.508160616226674
 30
0.0
 11
6.708737129496698
 21
3.504160616226673
 31
0.0
  0
LINE
  5
7FD
330
1F
100
AcDbEntity
  8
Object
100
AcDbLine
 10
6.708737129496698
 20
3.504160616226673
 30
0.0
 11
6.706737129496699
 21
3.499160616226673
 31
0.0
  0
LINE
  5
7FE
330
1F
100
AcDbEntity
  8
Object
100
AcDbLine
 10
8.214737129496699
 20
7.287160616226674
 30
0.0
 11
8.214737129496699
 21
7.034160616226674
 31
0.0
  0
LINE
  5
7FF
330
1F
100
AcDbEntity
  8
Object
100
AcDbLine
 10
2.270737129496699
 20
6.764160616226674
 30
0.0
 11
2.262737129496699
 21
6.763160616226674
 31
0.0
  0
LINE
  5
800
330
1F
100
AcDbEntity
  8
Object
100
AcDbLine
 10
2.262737129496699
 20
6.763160616226674
 30
0.0
 11
2.255737129496699
 21
6.758160616226674
 31
0.0
  0
LINE
  5
801
330
1F
100
AcDbEntity
  8
Object
100
AcDbLine
 10
2.255737129496699
 20
6.758160616226674
 30
0.0
 11
2.251737129496699
 21
6.751160616226674
 31
0.0
  0
LINE
  5
802
330
1F
100
AcDbEntity
  8
Object
100
AcDbLine
 10
2.251737129496699
 20
6.751160616226674
 30
0.0
 11
2.250737129496698
 21
6.743160616226674
 31
0.0
  0
LINE
  5
803
330
1F
100
AcDbEntity
  8
Object
100
AcDbLine
 10
2.557737129496699
 20
6.849160616226674
 30
0.0
 11
2.539737129496699
 21
6.859160616226674
 31
0.0
  0
LINE
  5
804
330
1F
100
AcDbEntity
  8
Object
100
AcDbLine
 10
2.579737129496699
 20
7.034160616226674
 30
0.0
 11
2.574737129496698
 21
7.009160616226674
 31
0.0
  0
LINE
  5
805
330
1F
100
AcDbEntity
  8
Object
100
AcDbLine
 10
2.574737129496698
 20
7.009160616226674
 30
0.0
 11
2.560737129496699
 21
6.988160616226673
 31
0.0
  0
LINE
  5
806
330
1F
100
AcDbEntity
  8
Object
100
AcDbLine
 10
2.560737129496699
 20
6.988160616226673
 30
0.0
 11
2.539737129496699
 21
6.974160616226674
 31
0.0
  0
LINE
  5
807
330
1F
100
AcDbEntity
  8
Object
100
AcDbLine
 10
2.539737129496699
 20
6.974160616226674
 30
0.0
 11
2.514737129496699
 21
6.969160616226674
 31
0.0
  0
LINE
  5
808
330
1F
100
AcDbEntity
  8
Object
100
AcDbLine
 10
2.169737129496699
 20
7.094160616226674
 30
0.0
 11
2.143737129496699
 21
7.089160616226673
 31
0.0
  0
LINE
  5
809
330
1F
100
AcDbEntity
  8
Object
100
AcDbLine
 10
2.143737129496699
 20
7.089160616226673
 30
0.0
 11
2.122737129496699
 21
7.074160616226674
 31
0.0
  0
LINE
  5
80A
330
1F
100
AcDbEntity
  8
Object
100
AcDbLine
 10
2.122737129496699
 20
7.074160616226674
 30
0.0
 11
2.108737129496699
 21
7.051160616226674
 31
0.0
  0
LINE
  5
80B
102
{ACAD_REACTORS
330
849
102
}
330
1F
100
AcDbEntity
  8
Object
100
AcDbLine
 10
2.108737129496699
 20
7.051160616226674
 30
0.0
 11
2.105737129496699
 21
7.025160616226674
 31
0.0
  0
LINE
  5
80C
330
1F
100
AcDbEntity
  8
Object
100
AcDbLine
 10
3.347737129496699
 20
3.509160616226674
 30
0.0
 11
3.342737129496699
 21
3.508160616226674
 31
0.0
  0
LINE
  5
80D
330
1F
100
AcDbEntity
  8
Object
100
AcDbLine
 10
3.342737129496699
 20
3.508160616226674
 30
0.0
 11
3.338737129496699
 21
3.504160616226673
 31
0.0
  0
LINE
  5
80E
330
1F
100
AcDbEntity
  8
Object
100
AcDbLine
 10
3.338737129496699
 20
3.504160616226673
 30
0.0
 11
3.337737129496699
 21
3.499160616226673
 31
0.0
  0
LINE
  5
80F
330
1F
100
AcDbEntity
  8
Object
100
AcDbLine
 10
3.347737129496699
 20
3.509160616226674
 30
0.0
 11
4.077737129496698
 21
3.509160616226674
 31
0.0
  0
LINE
  5
810
330
1F
100
AcDbEntity
  8
Object
100
AcDbLine
 10
7.446737129496699
 20
3.275160616226674
 30
0.0
 11
7.246737129496699
 21
3.275160616226674
 31
0.0
  0
LINE
  5
811
330
1F
100
AcDbEntity
  8
Object
100
AcDbLine
 10
7.246737129496699
 20
3.150160616226674
 30
0.0
 11
7.791737129496699
 21
3.150160616226674
 31
0.0
  0
LINE
  5
812
330
1F
100
AcDbEntity
  8
Object
100
AcDbLine
 10
8.469737129496699
 20
7.430160616226674
 30
0.0
 11
8.469737129496699
 21
7.287160616226674
 31
0.0
  0
LINE
  5
813
330
1F
100
AcDbEntity
  8
Object
100
AcDbLine
 10
2.365737129496698
 20
7.587160616226674
 30
0.0
 11
2.326737129496699
 21
7.594160616226674
 31
0.0
  0
LINE
  5
814
330
1F
100
AcDbEntity
  8
Object
100
AcDbLine
 10
2.326737129496699
 20
7.594160616226674
 30
0.0
 11
2.287737129496699
 21
7.588160616226674
 31
0.0
  0
LINE
  5
815
330
1F
100
AcDbEntity
  8
Object
100
AcDbLine
 10
2.287737129496699
 20
7.588160616226674
 30
0.0
 11
2.252737129496699
 21
7.571160616226674
 31
0.0
  0
LINE
  5
816
330
1F
100
AcDbEntity
  8
Object
100
AcDbLine
 10
2.252737129496699
 20
7.571160616226674
 30
0.0
 11
2.224737129496698
 21
7.543160616226674
 31
0.0
  0
LINE
  5
817
330
1F
100
AcDbEntity
  8
Object
100
AcDbLine
 10
2.224737129496698
 20
7.543160616226674
 30
0.0
 11
2.206737129496699
 21
7.508160616226674
 31
0.0
  0
LINE
  5
818
330
1F
100
AcDbEntity
  8
Object
100
AcDbLine
 10
2.206737129496699
 20
7.508160616226674
 30
0.0
 11
2.199737129496698
 21
7.469160616226674
 31
0.0
  0
LINE
  5
819
330
1F
100
AcDbEntity
  8
Object
100
AcDbLine
 10
8.532737129496698
 20
6.839160616226673
 30
0.0
 11
8.297737129496699
 21
6.839160616226673
 31
0.0
  0
LINE
  5
81A
330
1F
100
AcDbEntity
  8
Object
100
AcDbLine
 10
2.579737129496699
 20
7.287160616226674
 30
0.0
 11
2.573737129496699
 21
7.352160616226674
 31
0.0
  0
LINE
  5
81B
330
1F
100
AcDbEntity
  8
Object
100
AcDbLine
 10
2.573737129496699
 20
7.352160616226674
 30
0.0
 11
2.553737129496699
 21
7.414160616226673
 31
0.0
  0
LINE
  5
81C
330
1F
100
AcDbEntity
  8
Object
100
AcDbLine
 10
2.553737129496699
 20
7.414160616226673
 30
0.0
 11
2.520737129496699
 21
7.471160616226674
 31
0.0
  0
LINE
  5
81D
330
1F
100
AcDbEntity
  8
Object
100
AcDbLine
 10
2.520737129496699
 20
7.471160616226674
 30
0.0
 11
2.477737129496698
 21
7.520160616226673
 31
0.0
  0
LINE
  5
81E
330
1F
100
AcDbEntity
  8
Object
100
AcDbLine
 10
2.477737129496698
 20
7.520160616226673
 30
0.0
 11
2.424737129496699
 21
7.559160616226674
 31
0.0
  0
LINE
  5
81F
330
1F
100
AcDbEntity
  8
Object
100
AcDbLine
 10
2.424737129496699
 20
7.559160616226674
 30
0.0
 11
2.365737129496698
 21
7.587160616226674
 31
0.0
  0
LINE
  5
820
330
1F
100
AcDbEntity
  8
Object
100
AcDbLine
 10
2.434737129496699
 20
7.094160616226674
 30
0.0
 11
2.169737129496699
 21
7.094160616226674
 31
0.0
  0
LINE
  5
821
330
1F
100
AcDbEntity
  8
Object
100
AcDbLine
 10
2.987737129496698
 20
3.260160616226674
 30
0.0
 11
2.987737129496698
 21
3.165160616226674
 31
0.0
  0
LINE
  5
822
330
1F
100
AcDbEntity
  8
Object
100
AcDbLine
 10
3.877737129496699
 20
3.275160616226674
 30
0.0
 11
3.869737129496699
 21
3.273160616226673
 31
0.0
  0
LINE
  5
823
330
1F
100
AcDbEntity
  8
Object
100
AcDbLine
 10
3.869737129496699
 20
3.273160616226673
 30
0.0
 11
3.864737129496699
 21
3.268160616226674
 31
0.0
  0
LINE
  5
824
330
1F
100
AcDbEntity
  8
Object
100
AcDbLine
 10
3.864737129496699
 20
3.268160616226674
 30
0.0
 11
3.862737129496698
 21
3.260160616226674
 31
0.0
  0
LINE
  5
825
330
1F
100
AcDbEntity
  8
Object
100
AcDbLine
 10
3.877737129496699
 20
3.150160616226674
 30
0.0
 11
4.137737129496699
 21
3.150160616226674
 31
0.0
  0
LINE
  5
826
330
1F
100
AcDbEntity
  8
Object
100
AcDbLine
 10
7.246737129496699
 20
3.150160616226674
 30
0.0
 11
7.239737129496699
 21
3.152160616226674
 31
0.0
  0
LINE
  5
827
330
1F
100
AcDbEntity
  8
Object
100
AcDbLine
 10
7.239737129496699
 20
3.152160616226674
 30
0.0
 11
7.233737129496699
 21
3.158160616226674
 31
0.0
  0
LINE
  5
828
330
1F
100
AcDbEntity
  8
Object
100
AcDbLine
 10
7.233737129496699
 20
3.158160616226674
 30
0.0
 11
7.231737129496699
 21
3.165160616226674
 31
0.0
  0
LINE
  5
829
330
1F
100
AcDbEntity
  8
Object
100
AcDbLine
 10
8.5527371294967
 20
6.858160616226673
 30
0.0
 11
8.549737129496699
 21
6.848160616226674
 31
0.0
  0
LINE
  5
82A
330
1F
100
AcDbEntity
  8
Object
100
AcDbLine
 10
8.549737129496699
 20
6.848160616226674
 30
0.0
 11
8.541737129496699
 21
6.842160616226673
 31
0.0
  0
LINE
  5
82B
330
1F
100
AcDbEntity
  8
Object
100
AcDbLine
 10
8.541737129496699
 20
6.842160616226673
 30
0.0
 11
8.532737129496698
 21
6.839160616226673
 31
0.0
  0
LINE
  5
82C
330
1F
100
AcDbEntity
  8
Object
100
AcDbLine
 10
8.297737129496699
 20
6.839160616226673
 30
0.0
 11
8.294737129496699
 21
6.859160616226674
 31
0.0
  0
DIMENSION
  5
830
102
{ACAD_XDICTIONARY
360
83E
102
}
102
{ACAD_REACTORS
330
849
102
}
330
1F
100
AcDbEntity
  8
Dimension
100
AcDbDimension
  2
*D1
 10
8.689737129496698
 20
7.984562841748971
 30
0.0
 11
5.397737129496698
 21
7.984562841748971
 31
0.0
 70
    32
  1
6.58 [167.3MM]
 71
     5
 42
6.583999999999999
  3
Standard
100
AcDbAlignedDimension
 13
2.105737129496699
 23
7.025160616226674
 33
0.0
 14
8.689737129496698
 24
7.025160616226674
 34
0.0
100
AcDbRotatedDimension
  0
DIMENSION
  5
84A
102
{ACAD_XDICTIONARY
360
858
102
}
102
{ACAD_REACTORS
330
863
102
}
330
1F
100
AcDbEntity
  8
Dimension
100
AcDbDimension
  2
*D2
 10
9.677681162022981
 20
7.594160616226674
 30
0.0
 11
9.677681162022979
 21
5.373160616226675
 31
0.0
 70
    32
 71
     5
 42
4.442
  3
Standard
100
AcDbAlignedDimension
 13
7.799737129496699
 23
3.152160616226674
 33
0.0
 14
8.467737129496699
 24
7.594160616226674
 34
0.0
 50
90.0
100
AcDbRotatedDimension
  0
MTEXT
  5
865
330
1F
100
AcDbEntity
  8
Text
100
AcDbMText
 10
0.375
 20
0.8750000000000008
 30
0.0
 40
0.09
 41
0.25
 71
     5
 72
     5
  1
1
 73
     1
 44
1.0
1001
ACAD
1000
MTEXTBEGIN
1070
    73
1070
     1
1070
    44
1040
1.0
1070
    74
1070
     0
1000
MTEXTEND
  0
MTEXT
  5
866
330
1F
100
AcDbEntity
  8
Text
100
AcDbMText
 10
0.75
 20
0.8750000000000008
 30
0.0
 40
0.07
 41
0.5
 71
     5
 72
     5
  1
2-2-06
 73
     1
 44
1.0
1001
ACAD
1000
MTEXTBEGIN
1070
    73
1070
     1
1070
    44
1040
1.0
1070
    74
1070
     0
1000
MTEXTEND
  0
MTEXT
  5
867
330
1F
100
AcDbEntity
  8
Text
100
AcDbMText
 10
1.1875
 20
0.8750000000000008
 30
0.0
 40
0.09
 41
0.375
 71
     5
 72
     5
  1
MSO
 73
     1
 44
1.0
1001
ACAD
1000
MTEXTBEGIN
1070
    73
1070
     1
1070
    44
1040
1.0
1070
    74
1070
     0
1000
MTEXTEND
  0
MTEXT
  5
868
330
1F
100
AcDbEntity
  8
Text
100
AcDbMText
 10
1.5625
 20
0.8750000000000008
 30
0.0
 40
0.07
 41
0.375
 71
     5
 72
     5
  1
DJWA
 73
     1
 44
1.0
1001
ACAD
1000
MTEXTBEGIN
1070
    73
1070
     1
1070
    44
1040
1.0
1070
    74
1070
     0
1000
MTEXTEND
  0
MTEXT
  5
869
330
1F
100
AcDbEntity
  8
Text
100
AcDbMText
 10
1.774999999999999
 20
0.8750000000000003
 30
0.0
 40
0.07
 41
2.75
 71
     4
 72
     5
  1
B. REVISED PART GEOMETRY.\PA. REVISED DRAWING TITLE.
 73
     1
 44
1.0
1001
ACAD
1000
MTEXTBEGIN
1070
    73
1070
     1
1070
    44
1040
1.0
1070
    74
1070
     0
1000
MTEXTEND
  0
LINE
  5
86D
330
1F
100
AcDbEntity
  8
Text
100
AcDbLine
 10
6.773497527147942
 20
1.518673021962108
 30
0.0
 11
7.073497527147941
 21
1.518673021962108
 31
0.0
  0
LINE
  5
86E
330
1F
100
AcDbEntity
  8
Text
100
AcDbLine
 10
7.073497527147941
 20
1.518673021962108
 30
0.0
 11
6.923497527147941
 21
1.778480643097438
 31
0.0
  0
LINE
  5
86F
330
1F
100
AcDbEntity
  8
Text
100
AcDbLine
 10
6.773497527147942
 20
1.518673021962108
 30
0.0
 11
6.923497527147941
 21
1.778480643097438
 31
0.0
  0
TEXT
  5
871
330
1F
100
AcDbEntity
  8
Text
100
AcDbText
 10
6.884452627341335
 20
1.575178347749218
 30
0.0
 40
0.09
  1
A
100
AcDbText
  0
LINE
  5
876
330
1F
100
AcDbEntity
  8
Text
100
AcDbLine
 10
4.520195615900103
 20
2.88528297420575
 30
0.0
 11
4.820195615900103
 21
2.88528297420575
 31
0.0
  0
LINE
  5
877
330
1F
100
AcDbEntity
  8
Text
100
AcDbLine
 10
4.820195615900103
 20
2.88528297420575
 30
0.0
 11
4.670195615900103
 21
3.145090595341081
 31
0.0
  0
LINE
  5
878
330
1F
100
AcDbEntity
  8
Text
100
AcDbLine
 10
4.520195615900104
 20
2.88528297420575
 30
0.0
 11
4.670195615900103
 21
3.145090595341081
 31
0.0
  0
TEXT
  5
879
330
1F
100
AcDbEntity
  8
Text
100
AcDbText
 10
4.631150716093497
 20
2.941788299992861
 30
0.0
 40
0.09
  1
B
100
AcDbText
  0
DIMENSION
  5
8AC
330
1F
100
AcDbEntity
  8
Dimension
100
AcDbDimension
  2
*D3
 10
2.227274323614886
 20
5.284493802089166
 30
0.0
 11
1.391682218351728
 21
5.284493802089166
 31
0.0
 70
    32
  1
0.12 [3.2MM]
 71
     5
 42
0.1255058785022549
  3
Standard
100
AcDbAlignedDimension
 13
2.352780202117141
 23
5.279133320444268
 33
0.0
 14
2.227274323614886
 24
5.279133320444268
 34
0.0
100
AcDbRotatedDimension
1001
ACAD
1000
DSTYLE
1002
{
1070
    76
1070
     1
1070
    75
1070
     1
1070
   281
1070
     0
1002
}
  0
ENDSEC
  0
SECTION
  2
OBJECTS
  0
DICTIONARY
  5
C
330
0
100
AcDbDictionary
281
     1
  3
ACAD_COLOR
350
73
  3
ACAD_GROUP
350
D
  3
ACAD_LAYOUT
350
1A
  3
ACAD_MATERIAL
350
72
  3
ACAD_MLINESTYLE
350
17
  3
ACAD_PLOTSETTINGS
350
19
  3
ACAD_PLOTSTYLENAME
350
E
  3
ACAD_TABLESTYLE
350
86
  3
ACDBHEADERROUNDTRIPXREC
350
90A
  3
AcDbVariableDictionary
350
66
  0
DICTIONARY
  5
5D0
330
1F
100
AcDbDictionary
280
     1
281
     1
  3
ACAD_SORTENTS
360
5D1
  0
DICTIONARY
  5
83E
330
830
100
AcDbDictionary
280
     1
281
     1
  3
ACAD_DIMASSOC
360
849
  0
DICTIONARY
  5
858
330
84A
100
AcDbDictionary
280
     1
281
     1
  3
ACAD_DIMASSOC
360
863
  0
DICTIONARY
  5
73
102
{ACAD_REACTORS
330
C
102
}
330
C
100
AcDbDictionary
281
     1
  0
DICTIONARY
  5
D
102
{ACAD_REACTORS
330
C
102
}
330
C
100
AcDbDictionary
281
     1
  0
DICTIONARY
  5
1A
102
{ACAD_REACTORS
330
C
102
}
330
C
100
AcDbDictionary
281
     1
  3
Layout1
350
59
  3
Layout2
350
5E
  3
Model
350
22
  0
DICTIONARY
  5
72
102
{ACAD_REACTORS
330
C
102
}
330
C
100
AcDbDictionary
281
     1
  0
DICTIONARY
  5
17
102
{ACAD_REACTORS
330
C
102
}
330
C
100
AcDbDictionary
281
     1
  3
Standard
350
18
  0
DICTIONARY
  5
19
102
{ACAD_REACTORS
330
C
102
}
330
C
100
AcDbDictionary
281
     1
  0
ACDBDICTIONARYWDFLT
  5
E
102
{ACAD_REACTORS
330
C
102
}
330
C
100
AcDbDictionary
281
     1
  3
Normal
350
F
100
AcDbDictionaryWithDefault
340
F
  0
DICTIONARY
  5
86
102
{ACAD_REACTORS
330
C
102
}
330
C
100
AcDbDictionary
281
     1
  3
Standard
350
87
  0
DICTIONARY
  5
90A
102
{ACAD_REACTORS
330
C
102
}
330
C
100
AcDbDictionary
281
     1
  0
DICTIONARY
  5
66
102
{ACAD_REACTORS
330
C
102
}
330
C
100
AcDbDictionary
281
     1
  3
CTABLESTYLE
350
5D3
  3
DIMASSOC
350
67
  3
HIDETEXT
350
6B
  3
PROJECTNAME
350
908
  0
SORTENTSTABLE
  5
5D1
102
{ACAD_REACTORS
330
5D0
102
}
330
5D0
100
AcDbSortentsTable
330
1F
331
5CD
  5
1E0
331
5AF
  5
1C2
331
591
  5
1A4
331
5B8
  5
1CB
331
59A
  5
1AD
331
5C1
  5
1D4
331
5A3
  5
1B6
331
5CE
  5
1E1
331
5B0
  5
1C3
331
592
  5
1A5
331
5B9
  5
1CC
331
59B
  5
1AE
331
5C2
  5
1D5
331
5A4
  5
1B7
331
54E
  5
5CF
331
5A8
  5
1BB
331
5CF
  5
1E2
331
5B1
  5
1C4
331
593
  5
1A6
331
5BA
  5
1CD
331
59C
  5
1AF
331
5A5
  5
1B8
331
5C3
  5
1D6
331
5A9
  5
1BC
331
58B
  5
19E
331
5B2
  5
1C5
331
594
  5
1A7
331
59D
  5
1B0
331
5BB
  5
1CE
331
5C4
  5
1D7
331
5A6
  5
1B9
331
5C8
  5
1DB
331
5AA
  5
1BD
331
58C
  5
19F
331
595
  5
1A8
331
5B3
  5
1C6
331
5BC
  5
1CF
331
59E
  5
1B1
331
5C5
  5
1D8
331
5A7
  5
1BA
331
5C9
  5
1DC
331
58D
  5
1A0
331
5AB
  5
1BE
331
5B4
  5
1C7
331
596
  5
1A9
331
5BD
  5
1D0
331
59F
  5
1B2
331
5C6
  5
1D9
331
5AC
  5
1BF
331
58E
  5
1A1
331
5CA
  5
1DD
331
5B5
  5
1C8
331
597
  5
1AA
331
5BE
  5
1D1
331
5A0
  5
1B3
331
5C7
  5
1DA
331
5AD
  5
1C0
331
58F
  5
1A2
331
5CB
  5
1DE
331
5B6
  5
1C9
331
598
  5
1AB
331
5BF
  5
1D2
331
5A1
  5
1B4
331
5CC
  5
1DF
331
5AE
  5
1C1
331
590
  5
1A3
331
5B7
  5
1CA
331
599
  5
1AC
331
5C0
  5
1D3
331
5A2
  5
1B5
  0
DIMASSOC
  5
849
102
{ACAD_REACTORS
330
83E
102
}
330
83E
100
AcDbDimAssoc
330
830
 90
        3
 70
     0
 71
     0
  1
AcDbOsnapPointRef
 72
     1
331
80B
 73
     2
 91
        0
 40
0.9999999999999998
 10
0.0
 20
0.0
 30
2.000000000000000E+50
 75
     0
  1
AcDbOsnapPointRef
 72
    13
331
7C2
 73
     2
 91
        0
 40
0.0
 10
0.0
 20
0.0
 30
2.000000000000000E+50
 75
     0
  0
DIMASSOC
  5
863
102
{ACAD_REACTORS
330
858
102
}
330
858
100
AcDbDimAssoc
330
84A
 90
        2
 70
     0
 71
     0
  1
AcDbOsnapPointRef
 72
    13
331
734
 73
     2
 91
        0
 40
0.0
 10
0.0
 20
0.0
 30
2.000000000000000E+50
 75
     0
  0
LAYOUT
  5
59
102
{ACAD_XDICTIONARY
360
90D
102
}
102
{ACAD_REACTORS
330
1A
102
}
330
1A
100
AcDbPlotSettings
  1

  2
None
  4

  6

 40
0.0
 41
0.0
 42
0.0
 43
0.0
 44
0.0
 45
0.0
 46
0.0
 47
0.0
 48
0.0
 49
0.0
140
0.0
141
0.0
142
1.0
143
1.0
 70
   688
 72
     0
 73
     0
 74
     5
  7

 75
    16
147
1.0
148
0.0
149
0.0
100
AcDbLayout
  1
Layout1
 70
     1
 71
     1
 10
0.0
 20
0.0
 11
12.0
 21
9.0
 12
0.0
 22
0.0
 32
0.0
 14
0.0
 24
0.0
 34
0.0
 15
0.0
 25
0.0
 35
0.0
146
0.0
 13
0.0
 23
0.0
 33
0.0
 16
1.0
 26
0.0
 36
0.0
 17
0.0
 27
1.0
 37
0.0
 76
     0
330
58
  0
LAYOUT
  5
5E
102
{ACAD_XDICTIONARY
360
90F
102
}
102
{ACAD_REACTORS
330
1A
102
}
330
1A
100
AcDbPlotSettings
  1

  2
None
  4

  6

 40
0.0
 41
0.0
 42
0.0
 43
0.0
 44
0.0
 45
0.0
 46
0.0
 47
0.0
 48
0.0
 49
0.0
140
0.0
141
0.0
142
1.0
143
1.0
 70
   688
 72
     0
 73
     0
 74
     5
  7

 75
    16
147
1.0
148
0.0
149
0.0
100
AcDbLayout
  1
Layout2
 70
     1
 71
     2
 10
0.0
 20
0.0
 11
12.0
 21
9.0
 12
0.0
 22
0.0
 32
0.0
 14
0.0
 24
0.0
 34
0.0
 15
0.0
 25
0.0
 35
0.0
146
0.0
 13
0.0
 23
0.0
 33
0.0
 16
1.0
 26
0.0
 36
0.0
 17
0.0
 27
1.0
 37
0.0
 76
     0
330
5D
  0
LAYOUT
  5
22
102
{ACAD_XDICTIONARY
360
90B
102
}
102
{ACAD_REACTORS
330
1A
102
}
330
1A
100
AcDbPlotSettings
  1

  2
none_device
  4
ANSI_A_(8.50_x_11.00_Inches)
  6

 40
6.349999904632568
 41
19.04999923706055
 42
6.350006103515625
 43
19.04998779296875
 44
215.8999938964844
 45
279.3999938964844
 46
0.0
 47
0.0
 48
0.0
 49
0.0
140
0.0
141
0.0
142
1.0
143
2.584895464708373
 70
 11952
 72
     0
 73
     1
 74
     0
  7

 75
     0
147
0.3868628397755418
148
0.0
149
0.0
100
AcDbLayout
  1
Model
 70
     1
 71
     0
 10
0.0
 20
0.0
 11
12.0
 21
9.0
 12
0.0
 22
0.0
 32
0.0
 14
0.0
 24
0.0
 34
0.0
 15
0.0
 25
0.0
 35
0.0
146
0.0
 13
0.0
 23
0.0
 33
0.0
 16
1.0
 26
0.0
 36
0.0
 17
0.0
 27
1.0
 37
0.0
 76
     0
330
1F
  0
MLINESTYLE
  5
18
102
{ACAD_REACTORS
330
17
102
}
330
17
100
AcDbMlineStyle
  2
STANDARD
 70
     0
  3

 62
   256
 51
90.0
 52
90.0
 71
     2
 49
0.5
 62
   256
  6
BYLAYER
 49
-0.5
 62
   256
  6
BYLAYER
  0
ACDBPLACEHOLDER
  5
F
102
{ACAD_REACTORS
330
E
102
}
330
E
  0
TABLESTYLE
  5
87
102
{ACAD_REACTORS
330
86
102
}
330
86
100
AcDbTableStyle
  3
Standard
 70
     0
 71
     0
 40
0.06
 41
0.06
280
     0
281
     0
  7
Standard
140
0.18
170
     2
 62
     0
 63
     7
283
     0
274
    -2
284
     1
 64
     0
275
    -2
285
     1
 65
     0
276
    -2
286
     1
 66
     0
277
    -2
287
     1
 67
     0
278
    -2
288
     1
 68
     0
279
    -2
289
     1
 69
     0
  7
Standard
140
0.25
170
     5
 62
     0
 63
     7
283
     0
274
    -2
284
     1
 64
     0
275
    -2
285
     1
 65
     0
276
    -2
286
     1
 66
     0
277
    -2
287
     1
 67
     0
278
    -2
288
     1
 68
     0
279
    -2
289
     1
 69
     0
  7
Standard
140
0.18
170
     5
 62
     0
 63
     7
283
     0
274
    -2
284
     1
 64
     0
275
    -2
285
     1
 65
     0
276
    -2
286
     1
 66
     0
277
    -2
287
     1
 67
     0
278
    -2
288
     1
 68
     0
279
    -2
289
     1
 69
     0
  0
DICTIONARYVAR
  5
5D3
102
{ACAD_REACTORS
330
66
102
}
330
66
100
DictionaryVariables
280
     0
  1
STANDARD
  0
DICTIONARYVAR
  5
67
102
{ACAD_REACTORS
330
66
102
}
330
66
100
DictionaryVariables
280
     0
  1
2
  0
DICTIONARYVAR
  5
6B
102
{ACAD_REACTORS
330
66
102
}
330
66
100
DictionaryVariables
280
     0
  1
1
  0
DICTIONARYVAR
  5
908
102
{ACAD_REACTORS
330
66
102
}
330
66
100
DictionaryVariables
280
     0
  1

  0
DICTIONARY
  5
90D
330
59
100
AcDbDictionary
280
     1
281
     1
  3
ACAD_XREC_ROUNDTRIP
360
90E
  0
DICTIONARY
  5
90F
330
5E
100
AcDbDictionary
280
     1
281
     1
  3
ACAD_XREC_ROUNDTRIP
360
910
  0
DICTIONARY
  5
90B
330
22
100
AcDbDictionary
280
     1
281
     1
  3
ACAD_XREC_ROUNDTRIP
360
90C
  0
XRECORD
  5
90E
102
{ACAD_REACTORS
330
90D
102
}
330
90D
100
AcDbXrecord
280
     1
102
SHADEPLOT
 70
     0
102
SHADEPLOTRESLEVEL
 70
     2
102
SHADEPLOTCUSTOMDPI
 70
   300
  0
XRECORD
  5
910
102
{ACAD_REACTORS
330
90F
102
}
330
90F
100
AcDbXrecord
280
     1
102
SHADEPLOT
 70
     0
102
SHADEPLOTRESLEVEL
 70
     2
102
SHADEPLOTCUSTOMDPI
 70
   300
  0
XRECORD
  5
90C
102
{ACAD_REACTORS
330
90B
102
}
330
90B
100
AcDbXrecord
280
     1
102
SHADEPLOT
 70
     0
102
SHADEPLOTRESLEVEL
 70
     2
102
SHADEPLOTCUSTOMDPI
 70
   300
  0
ENDSEC
  0
EOF
